TAIFUN With Song - качественная и редкая музыка
Навигация
Heavy Metal Выражение "Heavy Metall" впервые появилось в романе известного американского писателя Уильяма Берроуза "Naked Lunch" (1959), где он использует этот термин для описания резкой, непривычной музыки. Элемент импровизации в истинном "металле" практически сведен к нулю, точнее - он отсутствует в традиционном смысле этого слова, однако опытные "металлические" группы (Metallica, Slayer, Megadeth) часто вводят в свои композиции очень сложные изменения ритма, и у неподготовленного слушателя может возникнуть ощущение какофонии, хотя речь идет о ритмической импровизации, по духу очень близкой той, которую исследуют серьезные современные композиторы.

А знаете ли Вы, что...
Кто написал чёрный квадрат за четверть века до Малевича?
«Французский писатель и юморист Альфонс Алле за четверть века до Казимира Малевича написал чёрный квадрат — картину под названием «Битва негров в пещере глубокой ночью». Также он почти на семьдесят лет предвосхитил минималистическую музыкальную пьесу из одной тишины «4’33"» Джона Кейджа своим аналогичным произведением «Траурный марш для похорон великого глухого».»
 
Опции темы

  #1
Старый 05.06.2021, 11:15
swint68
Релизёр
Досье
 
Аватар для swint68
FLAC Burning Witches - The Witch Of The North [Japanese Edition]


2021 - Burning Witches - The Witch Of The North




Исполнитель/Artist: Burning Witches
Альбом/Album: The Witch Of The North [Japanese Edition]
Год/Year: 2021
Жанр/Genre: Heavy Metal, Power Metal
Страна/Country: Япония
Рекорд-лейбл/Record label: Ward Records, Inc.; Chaos Reigns
Номер в каталоге/Catalogue #: GQCS-91036
Формат/Format: Free Lossless Audio Codec (*.flac)
Качество/Quality: Lossless
Тип рипа/RIP Type: image+.cue
Продолжительность/Length: 01:01:08
Источник/Source: HaRD
Размер/Size: 489 MB

Сканы в комплекте

Треклист

01. Winter's Wrath
02. The Witch Of The North
03. Tainted Ritual
04. We Stand As One
05. Flight Of The Valkyries
06. The Circle Of Five
07. Lady Of The Woods
08. Thrall
09. Omen
10. Nine Worlds
11. For Eternity
12. Dragon's Dream
13. Eternal Frost
14. Hall Of The Mountain King (Savatage cover)
[свернуть]

Превью на YouTube

[свернуть]

EAC лог

Exact Audio Copy V1.5 from 20. February 2020

EAC extraction logfile from 2. June 2021, 7:00

Burning Witches / The Witch Of The North (GQCS-91036)

Used drive : TSSTcorpDVDWBD SH-B123L Adapter: 1 ID: 1

Read mode : Secure
Utilize accurate stream : Yes
Defeat audio cache : Yes
Make use of C2 pointers : No

Read offset correction : 6
Overread into Lead-In and Lead-Out : No
Fill up missing offset samples with silence : Yes
Delete leading and trailing silent blocks : No
Null samples used in CRC calculations : Yes
Used interface : Native Win32 interface for Win NT & 2000

Used output format : User Defined Encoder
Selected bitrate : 896 kBit/s
Quality : High
Add ID3 tag : No
Command line compressor : C:\Program Files (x86)\Exact Audio Copy\FLAC\FLAC.EXE
Additional command line options : -6 -V -T "ARTIST=%artist%" -T "TITLE=%title%" -T "ALBUM=%albumtitle%" -T "DATE=%year%" -T "TRACKNUMBER=%tracknr%" -T "GENRE=%genre%" -T "COMMENT=%comment%" -T "BAND=%albuminterpret%" -T "ALBUMARTIST=%albuminterpret%" -T "COMPOSER=%composer%" %haslyrics%--tag-from-file=LYRICS="%lyricsfile%"%haslyrics% -T "DISCNUMBER=%cdnumber%" -T "TOTALDISCS=%totalcds%" -T "TOTALTRACKS=%numtracks%" %hascover%--picture="%coverfile%"%hascover% %source% -o %dest%


TOC of the extracted CD

Track | Start | Length | Start sector | End sector
---------------------------------------------------------
1 | 0:00.00 | 1:41.34 | 0 | 7608
2 | 1:41.34 | 5:29.66 | 7609 | 32349
3 | 7:11.25 | 4:38.61 | 32350 | 53260
4 | 11:50.11 | 5:11.14 | 53261 | 76599
5 | 17:01.25 | 4:58.46 | 76600 | 98995
6 | 21:59.71 | 5:20.00 | 98996 | 122995
7 | 27:19.71 | 5:48.13 | 122996 | 149108
8 | 33:08.09 | 5:03.63 | 149109 | 171896
9 | 38:11.72 | 0:48.00 | 171897 | 175496
10 | 38:59.72 | 4:50.63 | 175497 | 197309
11 | 43:50.60 | 5:55.66 | 197310 | 224000
12 | 49:46.51 | 4:15.08 | 224001 | 243133
13 | 54:01.59 | 1:20.34 | 243134 | 249167
14 | 55:22.18 | 5:46.00 | 249168 | 275117


Range status and errors

Selected range

Filename E:\MUSIC\Burning Witches - The Witch Of The North (GQCS-91036).wav

Peak level 95.3 %
Extraction speed 7.4 X
Range quality 99.9 %
Test CRC BB94B3F7
Copy CRC BB94B3F7
Copy OK

No errors occurred


AccurateRip summary

Track 1 not present in database
Track 2 not present in database
Track 3 not present in database
Track 4 not present in database
Track 5 not present in database
Track 6 not present in database
Track 7 not present in database
Track 8 not present in database
Track 9 not present in database
Track 10 not present in database
Track 11 not present in database
Track 12 not present in database
Track 13 not present in database
Track 14 not present in database

None of the tracks are present in the AccurateRip database

End of status report

---- CUETools DB Plugin V2.1.6

[CTDB TOCID: wRAOeQ5rpmJda1xPcQPognzmJJs-] found
Submit result: wRAOeQ5rpmJda1xPcQPognzmJJs- has been confirmed
Track | CTDB Status
1 | (9/9) Accurately ripped
2 | (9/9) Accurately ripped
3 | (9/9) Accurately ripped
4 | (9/9) Accurately ripped
5 | (9/9) Accurately ripped
6 | (9/9) Accurately ripped
7 | (9/9) Accurately ripped
8 | (9/9) Accurately ripped
9 | (9/9) Accurately ripped
10 | (9/9) Accurately ripped
11 | (9/9) Accurately ripped
12 | (9/9) Accurately ripped
13 | (9/9) Accurately ripped
14 | (9/9) Accurately ripped


==== Log checksum EF1DB2C1D90EBA13E8A02EEFD48CCE40AA3BAD149AA9C0D19C9C9643B4AE7F0D ====
[свернуть]

Файл CUE

REM GENRE Metal
REM DATE 2021
REM DISCID A00E540E
REM COMMENT "ExactAudioCopy v1.5"
PERFORMER "Burning Witches"
TITLE "The Witch Of The North (GQCS-91036)"
REM COMPOSER ""
FILE "Burning Witches - The Witch Of The North (GQCS-91036).flac" WAVE
TRACK 01 AUDIO
TITLE "Winter's Wrath "
PERFORMER "Burning Witches"
REM COMPOSER ""
INDEX 01 00:00:00
TRACK 02 AUDIO
TITLE "The Witch Of The North "
PERFORMER "Burning Witches"
REM COMPOSER ""
INDEX 01 01:41:34
TRACK 03 AUDIO
TITLE "Tainted Ritual "
PERFORMER "Burning Witches"
REM COMPOSER ""
INDEX 01 07:11:25
TRACK 04 AUDIO
TITLE "We Stand As One "
PERFORMER "Burning Witches"
REM COMPOSER ""
INDEX 01 11:50:11
TRACK 05 AUDIO
TITLE "Flight Of The Valkyries "
PERFORMER "Burning Witches"
REM COMPOSER ""
INDEX 01 17:01:25
TRACK 06 AUDIO
TITLE "The Circle Of Five "
PERFORMER "Burning Witches"
REM COMPOSER ""
INDEX 01 21:59:71
TRACK 07 AUDIO
TITLE "Lady Of The Woods "
PERFORMER "Burning Witches"
REM COMPOSER ""
INDEX 01 27:19:71
TRACK 08 AUDIO
TITLE "Thrall "
PERFORMER "Burning Witches"
REM COMPOSER ""
INDEX 01 33:08:09
TRACK 09 AUDIO
TITLE "Omen "
PERFORMER "Burning Witches"
REM COMPOSER ""
INDEX 01 38:11:72
TRACK 10 AUDIO
TITLE "Nine Worlds "
PERFORMER "Burning Witches"
REM COMPOSER ""
INDEX 01 38:59:72
TRACK 11 AUDIO
TITLE "For Eternity "
PERFORMER "Burning Witches"
REM COMPOSER ""
INDEX 01 43:50:60
TRACK 12 AUDIO
TITLE "Dragon's Dream "
PERFORMER "Burning Witches"
REM COMPOSER ""
INDEX 01 49:46:51
TRACK 13 AUDIO
TITLE "Eternal Frost "
PERFORMER "Burning Witches"
REM COMPOSER ""
INDEX 01 54:01:59
TRACK 14 AUDIO
TITLE "Hall Of The Mountain King"
PERFORMER "Burning Witches"
REM COMPOSER ""
INDEX 01 55:22:18
[свернуть]

Лог проверки качества

-----------------------

DON'T MODIFY THIS FILE

-----------------------

PERFORMER: auCDtect Task Manager, ver. 1.6.0 RC1 build 1.6.0.1
Copyright © 2008-2010 y-soft. All rights reserved
[Ссылки могут видеть только зарегистрированные и активированные пользователи.]
[Only registered and activated users can see links.]

ANALYZER: auCDtect: CD records authenticity detector, version 0.8.2
Copyright © 2004 Oleg Berngardt. All rights reserved.
Copyright © 2004 Alexander Djourik. All rights reserved.


FILE: Burning Witches - The Witch Of The North (GQCS-91036).flac
Size: 470418467 Hash: BF2F0BC920E9E7A883177635FBC3E7E8 Accuracy: -m0
Conclusion: CDDA 100%
Signature: C2A26A4DBDB6DE91E6DD5BD119C78F0547DB9A56
[свернуть]

Скачать Burning Witches - The Witch Of The North

[Ссылки могут видеть только зарегистрированные и активированные пользователи.]
[Only registered and activated users can see links.]
[свернуть]

Вверх
3 пользователя(ей) сказали cпасибо:
Lighting1981 (05.06.2021), sergych (06.06.2021), TAIFUN (08.06.2021)
 
Похожие темы
Тема Автор Раздел Ответов Последнее сообщение
Релиз Sidhe - She Is A Witch PUPOKIN Gothic Metal 0 30.10.2012 10:28
Альбом Cains Dinasty - Madmen Witches and Vampires PUPOKIN Power Metal 0 21.03.2011 11:05
Альбом Seven Witches – Xiled To Infinity And One PUPOKIN Heavy Metal 0 10.09.2010 12:16
Альбом Stormwitch - Dance With The Witches PUPOKIN Heavy Metal 0 11.12.2009 10:17
Релиз Magica - Wolves And Witches PUPOKIN Symphonic Metal 0 31.12.2008 11:22


Метки
2021 , burning witches , heavy metal , japanese edition , power metal

Опции темы

Ваши права в разделе
Вы не можете создавать новые темы
Вы не можете отвечать в темах
Вы не можете прикреплять вложения
Вы не можете редактировать свои сообщения

Быстрый переход


Текущее время: 18:48. Часовой пояс GMT +3.

© 2008 - 2021 Taifun With Song
Powered by vBulletin® Version 3.8.10
Copyright ©2000 - 2021, vBulletin Solutions, Inc. Перевод: zCarot
При поддержке NIC.UA
Яндекс.Метрика
1.05114 сек. | MySQL: 17