TAIFUN With Song - качественная и редкая музыка
Навигация
Heavy Metal Выражение "Heavy Metall" впервые появилось в романе известного американского писателя Уильяма Берроуза "Naked Lunch" (1959), где он использует этот термин для описания резкой, непривычной музыки. Элемент импровизации в истинном "металле" практически сведен к нулю, точнее - он отсутствует в традиционном смысле этого слова, однако опытные "металлические" группы (Metallica, Slayer, Megadeth) часто вводят в свои композиции очень сложные изменения ритма, и у неподготовленного слушателя может возникнуть ощущение какофонии, хотя речь идет о ритмической импровизации, по духу очень близкой той, которую исследуют серьезные современные композиторы.

А знаете ли Вы, что...
Где собачий вальс зовут ослиным маршем, а где — кошачьей полькой?
«Собачий вальс в разных странах называется по-разному. В Германии, Бельгии, Нидерландах — блошиный вальс. В Болгарии — кошачий марш, а в Финляндии — кошачья полька. В Венгрии — ослиный марш, а во Франции его почему-то называют отбивной котлетой.»
 
Опции темы

  #1
Старый 30.05.2021, 11:09
swint68
Релизёр
Досье
 
Аватар для swint68
FLAC Herman Frank - Two For A Lie


2021 - Herman Frank - Two For A Lie




Исполнитель/Artist: Herman Frank
Альбом/Album: Two For A Lie
Год/Year: 2021
Жанр/Genre: Heavy Metal
Страна/Country: Германия
Рекорд-лейбл/Record label: AFM Records
Номер в каталоге/Catalogue #: AFM 778-9
Формат/Format: Free Lossless Audio Codec (*.flac)
Качество/Quality: Lossless
Тип рипа/RIP Type: image+.cue
Продолжительность/Length: 00:42:54
Источник/Source: Hellwings71
Размер/Size: 496 MB

Сканы в комплекте

Треклист

01. Teutonic Order
02. Venom
03. Hate
04. Eye Of The Storm
05. Liar
06. Hail The New Kings
07. Just A Second To Lose
08. Danger
09. Stand Up and Fight
10. Open Your Mind
[свернуть]

Превью на YouTube

[свернуть]

EAC лог

Exact Audio Copy V1.6 from 23. October 2020

EAC extraction logfile from 29. May 2021, 13:52

Herman Frank / Two For A Lie (AFM 778-9,LC 05204)

Used drive : PIONEER DVD-RW DVR-221 Adapter: 1 ID: 0

Read mode : Secure
Utilize accurate stream : Yes
Defeat audio cache : Yes
Make use of C2 pointers : No

Read offset correction : 6
Overread into Lead-In and Lead-Out : No
Fill up missing offset samples with silence : Yes
Delete leading and trailing silent blocks : No
Null samples used in CRC calculations : Yes
Used interface : Installed external ASPI interface

Used output format : User Defined Encoder
Selected bitrate : 1024 kBit/s
Quality : High
Add ID3 tag : No
Command line compressor : C:\Program Files\Exact Audio Copy\FLAC\FLAC.EXE
Additional command line options : -V -8 -T "Date=%year%" -T "Genre=%genre%" -T "COMMENT=Ripped by Hellwings71" -8 -V %source%


TOC of the extracted CD

Track | Start | Length | Start sector | End sector
---------------------------------------------------------
1 | 0:00.00 | 4:58.52 | 0 | 22401
2 | 4:58.52 | 3:46.31 | 22402 | 39382
3 | 8:45.08 | 3:50.38 | 39383 | 56670
4 | 12:35.46 | 4:42.09 | 56671 | 77829
5 | 17:17.55 | 4:15.68 | 77830 | 97022
6 | 21:33.48 | 3:42.16 | 97023 | 113688
7 | 25:15.64 | 3:56.14 | 113689 | 131402
8 | 29:12.03 | 3:30.07 | 131403 | 147159
9 | 32:42.10 | 4:42.28 | 147160 | 168337
10 | 37:24.38 | 5:30.00 | 168338 | 193087


Range status and errors

Selected range

Filename E:\Program Files\CD Images\Hellwings71\Herman Frank - Two For A Lie 2021 (Lossless)\Herman Frank - Two For A Lie (AFM 778-9,LC 05204).wav

Peak level 99.9 %
Extraction speed 4.3 X
Range quality 100.0 %
Test CRC F65DA29B
Copy CRC F65DA29B
Copy OK

No errors occurred


AccurateRip summary

Track 1 not present in database
Track 2 not present in database
Track 3 not present in database
Track 4 not present in database
Track 5 not present in database
Track 6 not present in database
Track 7 not present in database
Track 8 not present in database
Track 9 not present in database
Track 10 not present in database

None of the tracks are present in the AccurateRip database

End of status report

---- CUETools DB Plugin V2.1.6

[CTDB TOCID: 8pNvsbY1Y0FHgii3qDDspN2n3.c-] found
Submit result: 8pNvsbY1Y0FHgii3qDDspN2n3.c- has been confirmed
Track | CTDB Status
1 | (3/3) Accurately ripped
2 | (3/3) Accurately ripped
3 | (3/3) Accurately ripped
4 | (3/3) Accurately ripped
5 | (3/3) Accurately ripped
6 | (3/3) Accurately ripped
7 | (3/3) Accurately ripped
8 | (3/3) Accurately ripped
9 | (3/3) Accurately ripped
10 | (3/3) Accurately ripped


==== Log checksum 992D21257C699F079AAF12C3D80CC1DEB4305F75EA70D45B3D88C6D76B1618B3 ====
[свернуть]

Файл CUE

REM GENRE "Heavy Metal"
REM DATE 2021
REM DISCID 850A0E0A
REM COMMENT "ExactAudioCopy v1.6"
PERFORMER "Herman Frank"
TITLE "Two For A Lie (AFM 778-9,LC 05204)"
REM COMPOSER ""
FILE "Herman Frank - Two For A Lie (AFM 778-9,LC 05204).flac" WAVE
TRACK 01 AUDIO
TITLE "Teutonic Order"
PERFORMER "Herman Frank"
REM COMPOSER ""
INDEX 01 00:00:00
TRACK 02 AUDIO
TITLE "Venom"
PERFORMER "Herman Frank"
REM COMPOSER ""
INDEX 01 04:58:52
TRACK 03 AUDIO
TITLE "Hate"
PERFORMER "Herman Frank"
REM COMPOSER ""
INDEX 01 08:45:08
TRACK 04 AUDIO
TITLE "Eye Of The Storm"
PERFORMER "Herman Frank"
REM COMPOSER ""
INDEX 01 12:35:46
TRACK 05 AUDIO
TITLE "Liar"
PERFORMER "Herman Frank"
REM COMPOSER ""
INDEX 01 17:17:55
TRACK 06 AUDIO
TITLE "Hail The New Kings"
PERFORMER "Herman Frank"
REM COMPOSER ""
INDEX 01 21:33:48
TRACK 07 AUDIO
TITLE "Just A Second To Lose"
PERFORMER "Herman Frank"
REM COMPOSER ""
INDEX 01 25:15:64
TRACK 08 AUDIO
TITLE "Danger"
PERFORMER "Herman Frank"
REM COMPOSER ""
INDEX 01 29:12:03
TRACK 09 AUDIO
TITLE "Stand Up And Fight"
PERFORMER "Herman Frank"
REM COMPOSER ""
INDEX 01 32:42:10
TRACK 10 AUDIO
TITLE "Open Your Mind"
PERFORMER "Herman Frank"
REM COMPOSER ""
INDEX 01 37:24:38
[свернуть]

Лог проверки качества

-----------------------

DON'T MODIFY THIS FILE

-----------------------

PERFORMER: auCDtect Task Manager, ver. 1.6.0 RC1 build 1.6.0.1
Copyright © 2008-2010 y-soft. All rights reserved
[Ссылки могут видеть только зарегистрированные и активированные пользователи.]
[Only registered and activated users can see links.]

ANALYZER: auCDtect: CD records authenticity detector, version 0.8.2
Copyright © 2004 Oleg Berngardt. All rights reserved.
Copyright © 2004 Alexander Djourik. All rights reserved.


FILE: Herman Frank - Two For A Lie (AFM 778-9,LC 05204).flac
Size: 342679797 Hash: 6B926D56204EF18872669AFB27319FBB Accuracy: -m0
Conclusion: CDDA 100%
Signature: 2BF37C647C8F0FE2BA9C915EBF8475268D04CF6F
[свернуть]

Скачать Herman Frank - Two For A Lie

[Ссылки могут видеть только зарегистрированные и активированные пользователи.]
[Only registered and activated users can see links.]
[свернуть]

Вверх
2 пользователя(ей) сказали cпасибо:
sergych (30.05.2021), TAIFUN (02.06.2021)
 
Похожие темы
Тема Автор Раздел Ответов Последнее сообщение
Релиз Herman Frank – The Devil Rides Out (Japanese Edition) PUPOKIN Heavy Metal 0 03.11.2016 15:36
Релиз Yaron Herman - Alter Ego PUPOKIN Jazz и Blues 0 14.09.2012 09:42
Релиз Herman Frank - Right In The Guts PUPOKIN Heavy Metal 0 24.06.2012 10:03
Релиз Herman Ze German — Take It As It Comes PUPOKIN Hard Rock 0 16.05.2010 10:34
Релиз Herman Frank - Loyal To None PUPOKIN Heavy Metal 1 11.02.2009 20:11


Метки
2021 , heavy metal , herman frank , two for a lie

Опции темы

Ваши права в разделе
Вы не можете создавать новые темы
Вы не можете отвечать в темах
Вы не можете прикреплять вложения
Вы не можете редактировать свои сообщения

Быстрый переход


Текущее время: 20:20. Часовой пояс GMT +3.

© 2008 - 2021 Taifun With Song
Powered by vBulletin® Version 3.8.10
Copyright ©2000 - 2021, vBulletin Solutions, Inc. Перевод: zCarot
При поддержке NIC.UA
Яндекс.Метрика
0.93938 сек. | MySQL: 17