TAIFUN With Song - качественная и редкая музыка
Навигация
Progressive Rock Единственной универсальной характеристикой прогрессивного рока является усложнение музыкальной формы. Это проявляется в удлиннении и усложнении музыкальных пьес, тяготении к циклическим формам академической музыки; расширении репертуара используемых тембров, усложнении метра и ритма, использовании нетрадиционных для рока мелодических и гармонических решений; поэзии, уходящей от тем развлекательной музыки и тяготеющей к философским «вечным темам», фантастической и фентезийной тематике; переплетении с классической и современной академической музыкой, джазом.

А знаете ли Вы, что...
Какая песня группы «Ария» одноимённа девизу итальянских фашистов?
«"Воля и разум" — это девиз итальянских фашистов. Авторы одноимённой песни группы "Ария" об этом не знали, равно как не знали и члены худсовета, одобрившие запись песни для пластинки.»
 
Опции темы

  #1
Старый 30.06.2013, 17:51
sergych
Координатор
Досье
 
Аватар для sergych
Релиз Emerson, Lake & Palmer - Pictures At An Exhibition


1971(2009) - Emerson, Lake & Palmer - Pictures At An Exhibition




Исполнитель/Artist: Emerson, Lake & Palmer
Альбом/Album: Pictures At An Exhibition
Год/Year: 1971
Ремастеринг/Remaster: 2009
Жанр/Genre: Progressive rock, classical crossover
Страна/Country: Russia
Рекорд-лейбл/Record label: Sanctuary Records / Юниверсал Мьюзик
Номер в каталоге/Catalogue #: 460502670282
Формат/Format: Free Lossless Audio Codec (*.flac)
Качество/Quality: Lossless
Тип рипа/RIP Type: tracks+.cue
Продолжительность/Length: 00:53:29
Источник/Source: Собственный рип
Размер/Size: 352.4 MB

Сканы в комплекте

Треклист

01 - Promenade
02 - The Gnome
03 - Promenade
04 - The Sage
05 - The Old Castle
06 - Blues Variation
07 - Promenade
08 - The Hut of Baba Yaga
09 - The Curse of Baba Yaga
10 - The Hut of Baba Yaga
11 - The Great Gate of Kiev
12 - Nutrocker

Bonus Track:
13 - Pictures at an Exhibition (studio version)
a - Promenade (instrumental)
b - The Gnome
c - Promenade (vocal)
d - The Sage
e - The Hut of Baba Yaga
f - The Great Gates of Kiev
[свернуть]

youtube.com

[свернуть]

EAC лог

Exact Audio Copy V1.0 beta 3 from 29. August 2011

EAC extraction logfile from 30. June 2013, 8:08

Emerson, Lake & Palmer / Pictures at an Exhibition (remastered)

Used drive : ATAPI iHAS124 D Adapter: 0 ID: 2

Read mode : Secure
Utilize accurate stream : Yes
Defeat audio cache : Yes
Make use of C2 pointers : No

Read offset correction : 6
Overread into Lead-In and Lead-Out : No
Fill up missing offset samples with silence : Yes
Delete leading and trailing silent blocks : No
Null samples used in CRC calculations : Yes
Used interface : Installed external ASPI interface
Gap handling : Appended to previous track

Used output format : User Defined Encoder
Selected bitrate : 1024 kBit/s
Quality : High
Add ID3 tag : No
Command line compressor : C:\Program Files (x86)\Exact Audio Copy\FLAC\FLAC.EXE
Additional command line options : -6 -V -T "ARTIST=%artist%" -T "TITLE=%title%" -T "ALBUM=%albumtitle%" -T "DATE=%year%" -T "TRACKNUMBER=%tracknr%" -T "GENRE=%genre%" -T "COMMENT=%comment%" -T "BAND=%albuminterpret%" -T "ALBUMARTIST=%albuminterpret%" -T "COMPOSER=%composer%" %haslyrics%--tag-from-file=LYRICS="%lyricsfile%"%haslyrics% -T "DISCNUMBER=%cdnumber%" -T "TOTALDISCS=%totalcds%" -T "TOTALTRACKS=%numtracks%" %hascover%--picture="%coverfile%"%hascover% %source% -o %dest%


TOC of the extracted CD

Track | Start | Length | Start sector | End sector
---------------------------------------------------------
1 | 0:00.00 | 1:57.22 | 0 | 8796
2 | 1:57.22 | 4:16.40 | 8797 | 28036
3 | 6:13.62 | 1:23.03 | 28037 | 34264
4 | 7:36.65 | 4:40.55 | 34265 | 55319
5 | 12:17.45 | 2:31.32 | 55320 | 66676
6 | 14:49.02 | 4:14.10 | 66677 | 85736
7 | 19:03.12 | 1:28.35 | 85737 | 92371
8 | 20:31.47 | 1:12.38 | 92372 | 97809
9 | 21:44.10 | 4:09.10 | 97810 | 116494
10 | 25:53.20 | 1:06.35 | 116495 | 121479
11 | 26:59.55 | 6:27.05 | 121480 | 150509
12 | 33:26.60 | 4:33.52 | 150510 | 171036
13 | 38:00.37 | 15:28.60 | 171037 | 240696


Track 1

Filename C:\mm\Emerson, Lake & Palmer\1971(2009) - Pictures At An Exhibition\01 - Promenade.wav

Pre-gap length 0:00:02.00

Peak level 80.8 %
Extraction speed 4.5 X
Track quality 100.0 %
Test CRC BFFAC735
Copy CRC BFFAC735
Cannot be verified as accurate (confidence 43) [33DB70CA], AccurateRip returned [FAF2778D] (AR v2)
Copy OK

Track 2

Filename C:\mm\Emerson, Lake & Palmer\1971(2009) - Pictures At An Exhibition\02 - The Gnome.wav

Peak level 97.7 %
Extraction speed 5.6 X
Track quality 100.0 %
Test CRC 524B260F
Copy CRC 524B260F
Cannot be verified as accurate (confidence 44) [8DF158DE], AccurateRip returned [E4E458DE] (AR v2)
Copy OK

Track 3

Filename C:\mm\Emerson, Lake & Palmer\1971(2009) - Pictures At An Exhibition\03 - Promenade.wav

Peak level 13.6 %
Extraction speed 4.7 X
Track quality 100.0 %
Test CRC D1B47371
Copy CRC D1B47371
Cannot be verified as accurate (confidence 44) [2705F428], AccurateRip returned [C33AC536] (AR v2)
Copy OK

Track 4

Filename C:\mm\Emerson, Lake & Palmer\1971(2009) - Pictures At An Exhibition\04 - The Sage.wav

Peak level 71.8 %
Extraction speed 6.5 X
Track quality 100.0 %
Test CRC 952558EC
Copy CRC 952558EC
Cannot be verified as accurate (confidence 44) [3AEB8CEB], AccurateRip returned [79DBBD97] (AR v2)
Copy OK

Track 5

Filename C:\mm\Emerson, Lake & Palmer\1971(2009) - Pictures At An Exhibition\05 - The Old Castle.wav

Peak level 83.2 %
Extraction speed 6.3 X
Track quality 100.0 %
Test CRC FF846BD6
Copy CRC FF846BD6
Cannot be verified as accurate (confidence 44) [D7083F64], AccurateRip returned [40575E7F] (AR v2)
Copy OK

Track 6

Filename C:\mm\Emerson, Lake & Palmer\1971(2009) - Pictures At An Exhibition\06 - Blues Variation.wav

Peak level 97.7 %
Extraction speed 7.2 X
Track quality 100.0 %
Test CRC 0D55DCCE
Copy CRC 0D55DCCE
Cannot be verified as accurate (confidence 44) [47A87821], AccurateRip returned [B7C5488D] (AR v2)
Copy OK

Track 7

Filename C:\mm\Emerson, Lake & Palmer\1971(2009) - Pictures At An Exhibition\07 - Promenade.wav

Peak level 97.7 %
Extraction speed 6.1 X
Track quality 100.0 %
Test CRC FFF079C1
Copy CRC FFF079C1
Cannot be verified as accurate (confidence 44) [E87E699A], AccurateRip returned [96535C1F] (AR v2)
Copy OK

Track 8

Filename C:\mm\Emerson, Lake & Palmer\1971(2009) - Pictures At An Exhibition\08 - The Hut of Baba Yaga.wav

Peak level 97.7 %
Extraction speed 5.9 X
Track quality 100.0 %
Test CRC 53CFBCC2
Copy CRC 53CFBCC2
Cannot be verified as accurate (confidence 44) [6DC4054A], AccurateRip returned [C288B5F9] (AR v2)
Copy OK

Track 9

Filename C:\mm\Emerson, Lake & Palmer\1971(2009) - Pictures At An Exhibition\09 - The Curse of Baba Yaga.wav

Peak level 97.7 %
Extraction speed 8.0 X
Track quality 100.0 %
Test CRC 5C400E9D
Copy CRC 5C400E9D
Cannot be verified as accurate (confidence 44) [135D001A], AccurateRip returned [ED312EF6] (AR v2)
Copy OK

Track 10

Filename C:\mm\Emerson, Lake & Palmer\1971(2009) - Pictures At An Exhibition\10 - The Hut of Baba Yaga.wav

Peak level 97.7 %
Extraction speed 6.1 X
Track quality 100.0 %
Test CRC 0193AFE8
Copy CRC 0193AFE8
Cannot be verified as accurate (confidence 44) [8102C4C8], AccurateRip returned [C7303F6B] (AR v2)
Copy OK

Track 11

Filename C:\mm\Emerson, Lake & Palmer\1971(2009) - Pictures At An Exhibition\11 - The Great Gate of Kiev.wav

Peak level 97.7 %
Extraction speed 8.0 X
Track quality 99.9 %
Test CRC F0DA1B4C
Copy CRC F0DA1B4C
Cannot be verified as accurate (confidence 44) [3165C0AD], AccurateRip returned [EE7636DD] (AR v2)
Copy OK

Track 12

Filename C:\mm\Emerson, Lake & Palmer\1971(2009) - Pictures At An Exhibition\12 - Nutrocker.wav

Peak level 98.8 %
Extraction speed 9.2 X
Track quality 100.0 %
Test CRC 2DAAFEF2
Copy CRC 2DAAFEF2
Cannot be verified as accurate (confidence 44) [0B4000F5], AccurateRip returned [187994DB] (AR v2)
Copy OK

Track 13

Filename C:\mm\Emerson, Lake & Palmer\1971(2009) - Pictures At An Exhibition\13 - Pictures at an Exhibition (studio version).wav

Peak level 87.0 %
Extraction speed 10.9 X
Track quality 100.0 %
Test CRC 8FE0FB28
Copy CRC 8FE0FB28
Cannot be verified as accurate (confidence 44) [773C725C], AccurateRip returned [74FBD78F] (AR v2)
Copy OK


No tracks could be verified as accurate
You may have a different pressing from the one(s) in the database

No errors occurred

End of status report
[свернуть]

Файл CUE

REM GENRE "Progressive Rock"
REM DATE 1971
REM DISCID A20C890D
REM COMMENT "ExactAudioCopy v1.0b3"
PERFORMER "Emerson, Lake & Palmer"
TITLE "Pictures at an Exhibition (remastered)"
FILE "01 - Promenade.wav" WAVE
TRACK 01 AUDIO
TITLE "Promenade"
PERFORMER "Emerson, Lake & Palmer"
INDEX 01 00:00:00
FILE "02 - The Gnome.wav" WAVE
TRACK 02 AUDIO
TITLE "The Gnome"
PERFORMER "Emerson, Lake & Palmer"
INDEX 01 00:00:00
FILE "03 - Promenade.wav" WAVE
TRACK 03 AUDIO
TITLE "Promenade"
PERFORMER "Emerson, Lake & Palmer"
INDEX 01 00:00:00
FILE "04 - The Sage.wav" WAVE
TRACK 04 AUDIO
TITLE "The Sage"
PERFORMER "Emerson, Lake & Palmer"
INDEX 01 00:00:00
FILE "05 - The Old Castle.wav" WAVE
TRACK 05 AUDIO
TITLE "The Old Castle"
PERFORMER "Emerson, Lake & Palmer"
INDEX 01 00:00:00
FILE "06 - Blues Variation.wav" WAVE
TRACK 06 AUDIO
TITLE "Blues Variation"
PERFORMER "Emerson, Lake & Palmer"
INDEX 01 00:00:00
FILE "07 - Promenade.wav" WAVE
TRACK 07 AUDIO
TITLE "Promenade"
PERFORMER "Emerson, Lake & Palmer"
INDEX 01 00:00:00
FILE "08 - The Hut of Baba Yaga.wav" WAVE
TRACK 08 AUDIO
TITLE "The Hut of Baba Yaga"
PERFORMER "Emerson, Lake & Palmer"
INDEX 01 00:00:00
FILE "09 - The Curse of Baba Yaga.wav" WAVE
TRACK 09 AUDIO
TITLE "The Curse of Baba Yaga"
PERFORMER "Emerson, Lake & Palmer"
INDEX 01 00:00:00
FILE "10 - The Hut of Baba Yaga.wav" WAVE
TRACK 10 AUDIO
TITLE "The Hut of Baba Yaga"
PERFORMER "Emerson, Lake & Palmer"
INDEX 01 00:00:00
FILE "11 - The Great Gate of Kiev.wav" WAVE
TRACK 11 AUDIO
TITLE "The Great Gate of Kiev"
PERFORMER "Emerson, Lake & Palmer"
INDEX 01 00:00:00
FILE "12 - Nutrocker.wav" WAVE
TRACK 12 AUDIO
TITLE "Nutrocker"
PERFORMER "Emerson, Lake & Palmer"
INDEX 01 00:00:00
FILE "13 - Pictures at an Exhibition (studio version).wav" WAVE
TRACK 13 AUDIO
TITLE "Pictures at an Exhibition (studio version)"
PERFORMER "Emerson, Lake & Palmer"
INDEX 01 00:00:00
[свернуть]

Лог проверки качества

AUDIOCHECKER v2.0 beta (build 457) - by Dester - [Ссылки могут видеть только зарегистрированные и активированные пользователи.]
[Only registered and activated users can see links.]
~~~~~~~~~~~~~~~~~~~~~~~~~~~~~~~~~~
-=== НЕ РЕДАКТИРУЙТЕ ЭТОТ ФАЙЛ! ===-

Путь: ...\1971(2009) - Pictures At An Exhibition

01 -=- 01 - Promenade.flac -=- CDDA (99%)
02 -=- 02 - The Gnome.flac -=- CDDA (100%)
03 -=- 03 - Promenade.flac -=- CDDA (100%)
04 -=- 04 - The Sage.flac -=- CDDA (100%)
05 -=- 05 - The Old Castle.flac -=- CDDA (100%)
06 -=- 06 - Blues Variation.flac -=- CDDA (100%)
07 -=- 07 - Promenade.flac -=- CDDA (100%)
08 -=- 08 - The Hut of Baba Yaga.flac -=- CDDA (100%)
09 -=- 09 - The Curse of Baba Yaga.flac -=- CDDA (100%)
10 -=- 10 - The Hut of Baba Yaga.flac -=- CDDA (100%)
11 -=- 11 - The Great Gate of Kiev.flac -=- CDDA (100%)
12 -=- 12 - Nutrocker.flac -=- CDDA (100%)
13 -=- 13 - Pictures at an Exhibition (studio version).flac -=- CDDA (99%)

Сводка 99,85% CDDA

116519124
[свернуть]

Скачать Emerson, Lake & Palmer - Pictures At An Exhibition

[Ссылки могут видеть только зарегистрированные и активированные пользователи.]
[Only registered and activated users can see links.]

password: sergych
[свернуть]
My opinion of release: 9/10

Release info RInfo

Альбом, основанный на музыке из цикла пьес "Картинки с выставки" русского композитора Модеста Петровича Мусоргского.
__________________
TAIFUN.Wings of Soul

Вверх
Пользователь сказал cпасибо:
aheron (30.06.2013)
 
  #2
Старый 09.06.2021, 16:53
sergych
Координатор
Досье
 
Аватар для sergych
FLAC Re: Emerson, Lake & Palmer - Pictures At An Exhibition


1971 (1993) - Emerson, Lake & Palmer - Pictures At An Exhibition




Исполнитель/Artist: Emerson, Lake & Palmer
Альбом/Album: Pictures At An Exhibition
Год/Year: 1971
Ремастеринг/Remaster: 1993
Жанр/Genre: Progressive rock, classical crossover
Страна/Country: Европа
Рекорд-лейбл/Record label: Victory
Номер в каталоге/Catalogue #: VICP-70150
Формат/Format: Free Lossless Audio Codec (*.flac)
Качество/Quality: Lossless
Тип рипа/RIP Type: image+.cue
Продолжительность/Length: 00:52:50
Источник/Source: Собственный рип
Размер/Size: 376.0 MB

Сканы в комплекте

Треклист

01. Promenade [0:01:58.03]
02. The Gnome [0:04:18.15]
03. Promenade [0:01:23.37]
04. The Sage [0:04:42.05]
05. The Old Castle [0:02:33.18]
06. Blues Variation [0:04:23.09]
07. Promenade [0:01:28.38]
08. The Hut Of Baba Yaga [0:01:12.68]
09. The Curse Of Baba Yaga [0:04:11.04]
10. The Hut Of Baba Yaga [0:01:06.58]
11. The Great Gates Of Kiev [0:06:37.60]
12. Nutrocker [0:04:25.19]

Bonus Track:
13. Rondo (Live At Lyceum 9/Dec/1970) [0:14:29.33]
[свернуть]

Превью на YouTube

[свернуть]

Исполнители/Performers

Keith Emerson – pipe organ, Hammond (C3) and L100) organs, Moog modular synthesizer (ribbon controller), Clavinet
Greg Lake – bass guitar, acoustic guitar, vocals
Carl Palmer – drums, percussion
[свернуть]

EAC лог

Exact Audio Copy V1.5 from 20. February 2020

EAC extraction logfile from 7. April 2021, 20:01

Emerson, Lake & Palmer / Pictures At An Exhibition

Used drive : PIONEER DVD-RW DVR-220L Adapter: 1 ID: 0

Read mode : Secure
Utilize accurate stream : Yes
Defeat audio cache : Yes
Make use of C2 pointers : No

Read offset correction : 6
Overread into Lead-In and Lead-Out : No
Fill up missing offset samples with silence : Yes
Delete leading and trailing silent blocks : No
Null samples used in CRC calculations : Yes
Used interface : Installed external ASPI interface

Used output format : User Defined Encoder
Selected bitrate : 1024 kBit/s
Quality : High
Add ID3 tag : No
Command line compressor : C:\Program Files (x86)\Exact Audio Copy\Flac\flac.exe
Additional command line options : -6 -V -T "ARTIST=%artist%" -T "TITLE=%title%" -T "ALBUM=%albumtitle%" -T "DATE=%year%" -T "TRACKNUMBER=%tracknr%" -T "GENRE=%genre%" -T "COMMENT=%comment%" -T "BAND=%albuminterpret%" -T "ALBUMARTIST=%albuminterpret%" -T "COMPOSER=%composer%" %haslyrics%--tag-from-file=LYRICS="%lyricsfile%"%haslyrics% -T "DISCNUMBER=%cdnumber%" -T "TOTALDISCS=%totalcds%" -T "TOTALTRACKS=%numtracks%" %hascover%--picture="%coverfile%"%hascover% %source% -o %dest%


TOC of the extracted CD

Track | Start | Length | Start sector | End sector
---------------------------------------------------------
1 | 0:00.00 | 1:58.03 | 0 | 8852
2 | 1:58.03 | 4:18.15 | 8853 | 28217
3 | 6:16.18 | 1:23.37 | 28218 | 34479
4 | 7:39.55 | 4:42.05 | 34480 | 55634
5 | 12:21.60 | 2:33.18 | 55635 | 67127
6 | 14:55.03 | 4:23.09 | 67128 | 86861
7 | 19:18.12 | 1:28.38 | 86862 | 93499
8 | 20:46.50 | 1:12.68 | 93500 | 98967
9 | 21:59.43 | 4:11.04 | 98968 | 117796
10 | 26:10.47 | 1:06.58 | 117797 | 122804
11 | 27:17.30 | 6:37.60 | 122805 | 152639
12 | 33:55.15 | 4:25.19 | 152640 | 172533
13 | 38:20.34 | 14:29.33 | 172534 | 237741


Range status and errors

Selected range

Filename C:\mm\Emerson, Lake & Palmer\1971(1993) - Pictures At An Exhibition [VICP-70150]\Emerson, Lake & Palmer - Pictures At An Exhibition.wav

Peak level 98.8 %
Extraction speed 7.1 X
Range quality 100.0 %
Test CRC E6811F64
Copy CRC E6811F64
Copy OK

No errors occurred


AccurateRip summary

Track 1 not present in database
Track 2 not present in database
Track 3 not present in database
Track 4 not present in database
Track 5 not present in database
Track 6 not present in database
Track 7 not present in database
Track 8 not present in database
Track 9 not present in database
Track 10 not present in database
Track 11 not present in database
Track 12 not present in database
Track 13 not present in database

None of the tracks are present in the AccurateRip database

End of status report

---- CUETools DB Plugin V2.1.6

[CTDB TOCID: KJSjfVK7VJX3_ZhX4hS74b9qnlc-] found
Submit result: KJSjfVK7VJX3_ZhX4hS74b9qnlc- has been confirmed
Track | CTDB Status
1 | (1/1) Accurately ripped
2 | (1/1) Accurately ripped
3 | (1/1) Accurately ripped
4 | (1/1) Accurately ripped
5 | (1/1) Accurately ripped
6 | (1/1) Accurately ripped
7 | (1/1) Accurately ripped
8 | (1/1) Accurately ripped
9 | (1/1) Accurately ripped
10 | (1/1) Accurately ripped
11 | (1/1) Accurately ripped
12 | (1/1) Accurately ripped
13 | (1/1) Accurately ripped
[свернуть]

Файл CUE

REM GENRE "Progressive rock"
REM DATE 1971
REM DISCID 9B0C610D
REM COMMENT "ExactAudioCopy v1.5"
PERFORMER "Emerson, Lake & Palmer"
TITLE "Pictures At An Exhibition"
REM COMPOSER ""
FILE "Emerson, Lake & Palmer - Pictures At An Exhibition.flac" WAVE
TRACK 01 AUDIO
TITLE "Promenade"
PERFORMER "Emerson, Lake & Palmer"
REM COMPOSER ""
INDEX 01 00:00:00
TRACK 02 AUDIO
TITLE "The Gnome"
PERFORMER "Emerson, Lake & Palmer"
REM COMPOSER ""
INDEX 01 01:58:03
TRACK 03 AUDIO
TITLE "Promenade"
PERFORMER "Emerson, Lake & Palmer"
REM COMPOSER ""
INDEX 01 06:16:18
TRACK 04 AUDIO
TITLE "The Sage"
PERFORMER "Emerson, Lake & Palmer"
REM COMPOSER ""
INDEX 01 07:39:55
TRACK 05 AUDIO
TITLE "The Old Castle"
PERFORMER "Emerson, Lake & Palmer"
REM COMPOSER ""
INDEX 01 12:21:60
TRACK 06 AUDIO
TITLE "Blues Variation"
PERFORMER "Emerson, Lake & Palmer"
REM COMPOSER ""
INDEX 01 14:55:03
TRACK 07 AUDIO
TITLE "Promenade"
PERFORMER "Emerson, Lake & Palmer"
REM COMPOSER ""
INDEX 01 19:18:12
TRACK 08 AUDIO
TITLE "The Hut Of Baba Yaga"
PERFORMER "Emerson, Lake & Palmer"
REM COMPOSER ""
INDEX 01 20:46:50
TRACK 09 AUDIO
TITLE "The Curse Of Baba Yaga"
PERFORMER "Emerson, Lake & Palmer"
REM COMPOSER ""
INDEX 01 21:59:43
TRACK 10 AUDIO
TITLE "The Hut Of Baba Yaga"
PERFORMER "Emerson, Lake & Palmer"
REM COMPOSER ""
INDEX 01 26:10:47
TRACK 11 AUDIO
TITLE "The Great Gates Of Kiev"
PERFORMER "Emerson, Lake & Palmer"
REM COMPOSER ""
INDEX 01 27:17:30
TRACK 12 AUDIO
TITLE "Nutrocker"
PERFORMER "Emerson, Lake & Palmer"
REM COMPOSER ""
INDEX 01 33:55:15
TRACK 13 AUDIO
TITLE "Rondo (Live At Lyceum 9/Dec/1970)"
PERFORMER "Emerson, Lake & Palmer"
REM COMPOSER ""
INDEX 01 38:20:34
[свернуть]

Лог проверки качества

AUDIOCHECKER v2.0 beta (build 457) - by Dester - [Ссылки могут видеть только зарегистрированные и активированные пользователи.]
[Only registered and activated users can see links.]
~~~~~~~~~~~~~~~~~~~~~~~~~~~~~~~~~~
-=== НЕ РЕДАКТИРУЙТЕ ЭТОТ ФАЙЛ! ===-

Путь: ...\1971(1993) - Pictures At An Exhibition [VICP-70150]

1 -=- Emerson, Lake & Palmer - Pictures At An Exhibition.flac -=- CDDA (100%)

37527028

-----------------

PERFORMER: auCDtect Task Manager, ver. 1.6.0 RC1 build 1.6.0.1
Copyright © 2008-2010 y-soft. All rights reserved
[Ссылки могут видеть только зарегистрированные и активированные пользователи.]
[Only registered and activated users can see links.]

ANALYZER: auCDtect: CD records authenticity detector, version 0.8.2
Copyright © 2004 Oleg Berngardt. All rights reserved.
Copyright © 2004 Alexander Djourik. All rights reserved.


FILE: Emerson, Lake & Palmer - Pictures At An Exhibition.flac
Size: 372056180 Hash: 8CEB622C0A979B3B60FBEBD11B3994D2 Accuracy: -m8
Conclusion: CDDA 100%
Signature: 6F7FA5AEBF4053C7A1CE41DAD295E04A7FD04663
[свернуть]

Отчёт Dynamic Range Meter

Код:
foobar2000 1.6 / Замер динамического диапазона (DR) 1.1.1
Дата отчёта:		2021-04-08 19:10:25

--------------------------------------------------------------------------------
Анализ:   Emerson, Lake & Palmer / Pictures At An Exhibition
--------------------------------------------------------------------------------

DR         Пики         RMS           Продолжительность трека
--------------------------------------------------------------------------------
DR10      -0.30 дБ   -12.27 дБ      1:58 01-Promenade
DR7       -0.30 дБ   -10.01 дБ      4:18 02-The Gnome
DR13     -11.78 дБ   -30.08 дБ      1:23 03-Promenade
DR15      -0.32 дБ   -22.66 дБ      4:42 04-The Sage
DR7       -0.30 дБ   -10.41 дБ      2:33 05-The Old Castle
DR7       -0.30 дБ    -9.40 дБ      4:23 06-Blues Variation
DR9       -0.30 дБ   -10.67 дБ      1:29 07-Promenade
DR8       -0.30 дБ    -9.97 дБ      1:13 08-The Hut Of Baba Yaga
DR8       -0.30 дБ   -10.09 дБ      4:11 09-The Curse Of Baba Yaga
DR8       -0.30 дБ    -9.69 дБ      1:07 10-The Hut Of Baba Yaga
DR8       -0.30 дБ   -11.32 дБ      6:38 11-The Great Gates Of Kiev
DR8       -0.30 дБ   -11.32 дБ      4:25 12-Nutrocker
DR6       -0.10 дБ    -8.87 дБ     14:29 13-Rondo (Live At Lyceum 9/Dec/1970)
--------------------------------------------------------------------------------

Количество треков:	13
Реальные значения DR:	DR9

Частота:			44100 Гц
Каналов:			2
Разрядность: 		16
Битрейт:			939 кбит/с
Кодек:			FLAC
================================================================================
[свернуть]

Спектр частот

[свернуть]

Скачать Emerson, Lake & Palmer - Pictures At An Exhibition

[Ссылки могут видеть только зарегистрированные и активированные пользователи.]
[Only registered and activated users can see links.]

password: sergych
[свернуть]

Контрольная сумма (хеш-сумма) архива

MD5: 9880df22f88c921416d5b05934f1273e
[свернуть]
My opinion of release: 9/10

Release info RInfo

пиратка, конечно, но качественная
__________________
TAIFUN.Wings of Soul

Вверх
Пользователь сказал cпасибо:
TAIFUN (15.06.2021)
Похожие темы
Тема Автор Раздел Ответов Последнее сообщение
Релиз Matt Palmer - Like the Ocean PUPOKIN R&B 0 05.10.2012 09:16
Релиз Keke Palmer – Awaken PUPOKIN R&B 0 19.01.2011 11:09
Exodus - The Atrocity Exhibition - Exhibit A rOzIk Thrash Metal 0 13.05.2008 00:27


Метки
1971 , classical crossover , emerson , emerson lake & palmer , lake , palmer , pictures at an exhibition , progressive rock

Опции темы

Ваши права в разделе
Вы не можете создавать новые темы
Вы не можете отвечать в темах
Вы не можете прикреплять вложения
Вы не можете редактировать свои сообщения

Быстрый переход


Текущее время: 19:55. Часовой пояс GMT +3.

© 2008 - 2021 Taifun With Song
Powered by vBulletin® Version 3.8.10
Copyright ©2000 - 2021, vBulletin Solutions, Inc. Перевод: zCarot
При поддержке NIC.UA
Яндекс.Метрика
0.95912 сек. | MySQL: 17