TAIFUN With Song - качественная и редкая музыка
Навигация
Jazz и Blues Гибкая ритмика, импровизационное начало, гармонии и мелодии - все это Jazz. Blues - жизнеутверждающая музыка, рожденная из душевной боли

А знаете ли Вы, что...
Хобби Альберта Эйнштейна!
«Эйнштейн любил играть на скрипке и однажды принял участие в благотворительном концерте в Германии.»
 
Опции темы

  #1
Старый 31.07.2010, 12:51
sergych
Координатор
Досье
 
Аватар для sergych
FLAC John Pizzarelli - P.S. Mr.Cole


1999 - John Pizzarelli - P.S. Mr.Cole




Исполнитель/Artist: John Pizzarelli
Альбом/Album: P.S. Mr.Cole
Год/Year: 1999
Жанр/Genre: Jazz, Smooth jazz, Funky, Swing
Страна/Country: Германия
Рекорд-лейбл/Record label: BMG Music
Номер в каталоге/Catalogue #: 09026 63563 2
Формат/Format: Free Lossless Audio Codec (*.flac)
Качество/Quality: Lossless
Тип рипа/RIP Type: image+.cue


Продолжительность/Length: 01:07:01
Источник/Source: Собственный рип
Размер/Size: 304.1 MB

Сканы в комплекте

Треклист

01. Walkin' My Baby Back Home [0:02:30.00]
02. Candy [0:05:32.67]
03. Welcome To The Club [0:03:21.15]
04. Indiana [0:03:22.70]
05. I Love You For Sentimental Reasons [0:02:52.28]
06. Don't Let It Go To Your Head [0:02:22.47]
07. Meet Me At No Special Place [0:03:19.05]
08. The Late Late Show [0:03:06.18]
09. Smile [0:03:51.62]
10. Tenderly [0:04:16.03]
11. I Was A Little Too Lonely [0:03:26.45]
12. I'm An Errand Boy For Rhythm [0:03:34.22]
13. Then I'll Be Tired Of You [0:04:02.28]
14. That's Nat [0:03:04.27]
15. Azure-Té [0:03:51.08]
16. I Know That You Know [0:03:42.57]
17. Embraceable You [0:03:27.40]
18. I Like Jersey Best [0:07:16.53]
[свернуть]

Превью на YouTube

[свернуть]

Исполнители/Performers

John Pizzarelli - Guitar, Vocals
Martin Pizzarelli - Bass
Ray Kennedy - Piano
Harry Allen - Tenor Sax (6,13)
[свернуть]

EAC лог

Exact Audio Copy V1.5 from 20. February 2020

EAC extraction logfile from 8. April 2021, 1:07

John Pizzarelli / P.S. Mr. Cole

Used drive : PIONEER DVD-RW DVR-220L Adapter: 1 ID: 0

Read mode : Secure
Utilize accurate stream : Yes
Defeat audio cache : Yes
Make use of C2 pointers : No

Read offset correction : 6
Overread into Lead-In and Lead-Out : No
Fill up missing offset samples with silence : Yes
Delete leading and trailing silent blocks : No
Null samples used in CRC calculations : Yes
Used interface : Installed external ASPI interface

Used output format : User Defined Encoder
Selected bitrate : 1024 kBit/s
Quality : High
Add ID3 tag : No
Command line compressor : C:\Program Files (x86)\Exact Audio Copy\Flac\flac.exe
Additional command line options : -6 -V -T "ARTIST=%artist%" -T "TITLE=%title%" -T "ALBUM=%albumtitle%" -T "DATE=%year%" -T "TRACKNUMBER=%tracknr%" -T "GENRE=%genre%" -T "COMMENT=%comment%" -T "BAND=%albuminterpret%" -T "ALBUMARTIST=%albuminterpret%" -T "COMPOSER=%composer%" %haslyrics%--tag-from-file=LYRICS="%lyricsfile%"%haslyrics% -T "DISCNUMBER=%cdnumber%" -T "TOTALDISCS=%totalcds%" -T "TOTALTRACKS=%numtracks%" %hascover%--picture="%coverfile%"%hascover% %source% -o %dest%


TOC of the extracted CD

Track | Start | Length | Start sector | End sector
---------------------------------------------------------
1 | 0:00.00 | 2:30.00 | 0 | 11249
2 | 2:30.00 | 5:32.67 | 11250 | 36216
3 | 8:02.67 | 3:21.15 | 36217 | 51306
4 | 11:24.07 | 3:22.70 | 51307 | 66526
5 | 14:47.02 | 2:52.28 | 66527 | 79454
6 | 17:39.30 | 2:22.47 | 79455 | 90151
7 | 20:02.02 | 3:19.05 | 90152 | 105081
8 | 23:21.07 | 3:06.18 | 105082 | 119049
9 | 26:27.25 | 3:51.62 | 119050 | 136436
10 | 30:19.12 | 4:16.03 | 136437 | 155639
11 | 34:35.15 | 3:26.45 | 155640 | 171134
12 | 38:01.60 | 3:34.22 | 171135 | 187206
13 | 41:36.07 | 4:02.28 | 187207 | 205384
14 | 45:38.35 | 3:04.27 | 205385 | 219211
15 | 48:42.62 | 3:51.08 | 219212 | 236544
16 | 52:33.70 | 3:42.57 | 236545 | 253251
17 | 56:16.52 | 3:27.40 | 253252 | 268816
18 | 59:44.17 | 7:16.53 | 268817 | 301569


Range status and errors

Selected range

Filename C:\mm\John Pizzarelli\1996(1999) - P.S. Mr.Cole [09026 63563 2]\John Pizzarelli - P.S. Mr. Cole.wav

Peak level 98.8 %
Extraction speed 8.1 X
Range quality 100.0 %
Test CRC FE6DC701
Copy CRC FE6DC701
Copy OK

No errors occurred


AccurateRip summary

Track 1 accurately ripped (confidence 2) [30DFCDD5] (AR v2)
Track 2 accurately ripped (confidence 2) [35714DD1] (AR v2)
Track 3 accurately ripped (confidence 2) [EB61C26B] (AR v2)
Track 4 accurately ripped (confidence 2) [1A3CD35C] (AR v2)
Track 5 accurately ripped (confidence 2) [C59767D2] (AR v2)
Track 6 accurately ripped (confidence 2) [1DF5F977] (AR v2)
Track 7 accurately ripped (confidence 2) [7B833CD8] (AR v2)
Track 8 accurately ripped (confidence 2) [E4F10EBB] (AR v2)
Track 9 accurately ripped (confidence 2) [816C1C3F] (AR v2)
Track 10 accurately ripped (confidence 2) [CAEB6338] (AR v2)
Track 11 accurately ripped (confidence 2) [BA15E341] (AR v2)
Track 12 accurately ripped (confidence 2) [A6770D8A] (AR v2)
Track 13 accurately ripped (confidence 2) [B381E7B0] (AR v2)
Track 14 accurately ripped (confidence 2) [D4E9E661] (AR v2)
Track 15 accurately ripped (confidence 2) [C78BE36D] (AR v2)
Track 16 accurately ripped (confidence 2) [EAF0CB73] (AR v2)
Track 17 accurately ripped (confidence 2) [4B77624B] (AR v2)
Track 18 accurately ripped (confidence 2) [BBA9B0DC] (AR v2)

All tracks accurately ripped

End of status report

---- CUETools DB Plugin V2.1.6

[CTDB TOCID: BS.OyogxHb.4KYv2BMVNIpv3r6w-] found
Submit result: BS.OyogxHb.4KYv2BMVNIpv3r6w- has been confirmed
Track | CTDB Status
1 | (52/53) Accurately ripped
2 | (51/53) Accurately ripped
3 | (52/53) Accurately ripped
4 | (51/53) Accurately ripped
5 | (51/53) Accurately ripped
6 | (51/53) Accurately ripped
7 | (52/53) Accurately ripped
8 | (51/53) Accurately ripped
9 | (51/53) Accurately ripped
10 | (51/53) Accurately ripped
11 | (51/53) Accurately ripped
12 | (51/53) Accurately ripped
13 | (51/53) Accurately ripped
14 | (52/53) Accurately ripped
15 | (51/53) Accurately ripped
16 | (51/53) Accurately ripped
17 | (52/53) Accurately ripped
18 | (51/53) Accurately ripped
[свернуть]

Файл CUE

REM GENRE Jazz+Funk
REM DATE 1996
REM DISCID 0F0FB412
REM COMMENT "ExactAudioCopy v1.5"
PERFORMER "John Pizzarelli"
TITLE "P.S. Mr. Cole"
REM COMPOSER ""
FILE "John Pizzarelli - P.S. Mr. Cole.flac" WAVE
TRACK 01 AUDIO
TITLE "Walkin' My Baby Back Home"
PERFORMER "John Pizzarelli"
REM COMPOSER ""
INDEX 01 00:00:00
TRACK 02 AUDIO
TITLE "Candy"
PERFORMER "John Pizzarelli"
REM COMPOSER ""
INDEX 00 02:27:67
INDEX 01 02:30:00
TRACK 03 AUDIO
TITLE "Welcome To The Club"
PERFORMER "John Pizzarelli"
REM COMPOSER ""
INDEX 00 08:00:72
INDEX 01 08:02:67
TRACK 04 AUDIO
TITLE "Indiana"
PERFORMER "John Pizzarelli"
REM COMPOSER ""
INDEX 00 11:22:10
INDEX 01 11:24:07
TRACK 05 AUDIO
TITLE "I Love You For Sentimental Reasons"
PERFORMER "John Pizzarelli"
REM COMPOSER ""
INDEX 00 14:43:67
INDEX 01 14:47:02
TRACK 06 AUDIO
TITLE "Don't Let It Go To Your Head"
PERFORMER "John Pizzarelli"
REM COMPOSER ""
INDEX 00 17:37:32
INDEX 01 17:39:30
TRACK 07 AUDIO
TITLE "Meet Me At No Special Place "
PERFORMER "John Pizzarelli"
REM COMPOSER ""
INDEX 00 19:59:10
INDEX 01 20:02:02
TRACK 08 AUDIO
TITLE "The Late Late Show"
PERFORMER "John Pizzarelli"
REM COMPOSER ""
INDEX 00 23:19:50
INDEX 01 23:21:07
TRACK 09 AUDIO
TITLE "Smile"
PERFORMER "John Pizzarelli"
REM COMPOSER ""
INDEX 00 26:25:15
INDEX 01 26:27:25
TRACK 10 AUDIO
TITLE "Tenderly"
PERFORMER "John Pizzarelli"
REM COMPOSER ""
INDEX 00 30:17:20
INDEX 01 30:19:12
TRACK 11 AUDIO
TITLE "I Was A Little Too Lonely"
PERFORMER "John Pizzarelli"
REM COMPOSER ""
INDEX 00 34:32:60
INDEX 01 34:35:15
TRACK 12 AUDIO
TITLE "I'm An Errand Boy For Rhythm"
PERFORMER "John Pizzarelli"
REM COMPOSER ""
INDEX 00 37:59:52
INDEX 01 38:01:60
TRACK 13 AUDIO
TITLE "Then I'll Be Tired Of You"
PERFORMER "John Pizzarelli"
REM COMPOSER ""
INDEX 00 41:33:45
INDEX 01 41:36:07
TRACK 14 AUDIO
TITLE "That's Nat"
PERFORMER "John Pizzarelli"
REM COMPOSER ""
INDEX 00 45:37:40
INDEX 01 45:38:35
TRACK 15 AUDIO
TITLE "Azure-Te"
PERFORMER "John Pizzarelli"
REM COMPOSER ""
INDEX 00 48:39:52
INDEX 01 48:42:62
TRACK 16 AUDIO
TITLE "I Know That You Know"
PERFORMER "John Pizzarelli"
REM COMPOSER ""
INDEX 00 52:31:72
INDEX 01 52:33:70
TRACK 17 AUDIO
TITLE "Embraceable You"
PERFORMER "John Pizzarelli"
REM COMPOSER ""
INDEX 00 56:14:10
INDEX 01 56:16:52
TRACK 18 AUDIO
TITLE "I Like Jersey Best"
PERFORMER "John Pizzarelli"
REM COMPOSER ""
INDEX 00 59:43:25
INDEX 01 59:44:17
[свернуть]

Лог проверки качества

AUDIOCHECKER v2.0 beta (build 457) - by Dester - [Ссылки могут видеть только зарегистрированные и активированные пользователи.]
[Only registered and activated users can see links.]
~~~~~~~~~~~~~~~~~~~~~~~~~~~~~~~~~~
-=== НЕ РЕДАКТИРУЙТЕ ЭТОТ ФАЙЛ! ===-

Путь: ...\1996(1999) - P.S. Mr.Cole [09026 63563 2]

1 -=- John Pizzarelli - P.S. Mr. Cole.flac -=- CDDA (100%)

33163524
=============

PERFORMER: auCDtect Task Manager, ver. 1.6.0 RC1 build 1.6.0.1
Copyright © 2008-2010 y-soft. All rights reserved
[Ссылки могут видеть только зарегистрированные и активированные пользователи.]
[Only registered and activated users can see links.]

ANALYZER: auCDtect: CD records authenticity detector, version 0.8.2
Copyright © 2004 Oleg Berngardt. All rights reserved.
Copyright © 2004 Alexander Djourik. All rights reserved.


FILE: John Pizzarelli - P.S. Mr. Cole.flac
Size: 303645703 Hash: C2EFF385674A1BC2C8E053FA859F31B0 Accuracy: -m8
Conclusion: CDDA 100%
Signature: 85277B3AC7809C22AD7EB4A73EC47DAC0F5ACA37
[свернуть]

Отчёт Dynamic Range Meter

Код:
foobar2000 1.6 / Замер динамического диапазона (DR) 1.1.1
Дата отчёта:		2021-04-08 19:11:02

--------------------------------------------------------------------------------
Анализ:   John Pizzarelli / P.S. Mr. Cole
--------------------------------------------------------------------------------

DR         Пики         RMS           Продолжительность трека
--------------------------------------------------------------------------------
DR11      -0.10 дБ   -13.42 дБ      2:30 01-Walkin' My Baby Back Home
DR12      -0.10 дБ   -14.02 дБ      5:33 02-Candy
DR10      -0.10 дБ   -11.83 дБ      3:21 03-Welcome To The Club
DR11      -0.10 дБ   -13.14 дБ      3:23 04-Indiana
DR12      -2.50 дБ   -18.51 дБ      2:52 05-I Love You For Sentimental Reasons
DR10      -0.10 дБ   -12.87 дБ      2:23 06-Don't Let It Go To Your Head
DR11      -0.10 дБ   -14.42 дБ      3:19 07-Meet Me At No Special Place 
DR9       -0.10 дБ   -11.62 дБ      3:06 08-The Late Late Show
DR12      -1.13 дБ   -16.24 дБ      3:52 09-Smile
DR13      -0.10 дБ   -15.84 дБ      4:16 10-Tenderly
DR11      -0.10 дБ   -12.40 дБ      3:27 11-I Was A Little Too Lonely
DR9       -0.10 дБ   -11.48 дБ      3:34 12-I'm An Errand Boy For Rhythm
DR12      -0.10 дБ   -15.11 дБ      4:02 13-Then I'll Be Tired Of You
DR12      -0.10 дБ   -14.24 дБ      3:04 14-That's Nat
DR11      -0.10 дБ   -15.47 дБ      3:51 15-Azure-Te
DR10      -0.10 дБ   -12.45 дБ      3:43 16-I Know That You Know
DR13      -0.96 дБ   -16.75 дБ      3:28 17-Embraceable You
DR12      -2.89 дБ   -17.67 дБ      7:17 18-I Like Jersey Best
--------------------------------------------------------------------------------

Количество треков:	18
Реальные значения DR:	DR11

Частота:			44100 Гц
Каналов:			2
Разрядность: 		16
Битрейт:			604 кбит/с
Кодек:			FLAC
================================================================================
[свернуть]

Спектр частот

[свернуть]

Скачать John Pizzarelli - P.S. Mr.Cole

[Ссылки могут видеть только зарегистрированные и активированные пользователи.]
[Only registered and activated users can see links.]

password: sergych
[свернуть]

Контрольная сумма (хеш-сумма) архива

MD5: 0727cca47793a2488467c11b91c5a343
[свернуть]
My opinion of release: 10/10

Release info RInfo

На днях в одной коммисионке, торгующей не самой дешёвой аудиотехникой, попался на глаза этот альбом, отсутствующий у меня. Безусловно я не смог оставить его пылиться на витринной полке
__________________
TAIFUN.Wings of Soul


Последний раз редактировалось sergych, 15.04.2021 в 07:33. Причина: замена интернет-рипа собственным
Вверх
3 пользователя(ей) сказали cпасибо:
johnsilver (16.04.2021), swint68 (21.04.2021), TAIFUN (24.12.2010)
 
  #2
Старый 24.12.2010, 13:56
podolsky
Неактивный
Досье
 
Аватар для podolsky
По умолчанию Re: John Pizzarelli - P.S. Mr.Cole

Уважаемый sergych!
Огромное спасибо за Пиццарелли!

Вверх
Пользователь сказал cпасибо:
sergych (24.12.2010)
  #3
Старый 24.12.2010, 21:35
sergych
Координатор
Досье
 
Аватар для sergych
По умолчанию Re: John Pizzarelli - P.S. Mr.Cole

podolsky, спасибо Вам за интерес к прекрасному, на мой взгляд, гитаристу и исполнителю .
Ну и спасибо его папе, за то, что передал сыну свой талант и любовь к джазу.
Жаль, что времени катастрофически не хватает. чтобы поделиться всем имеющимся материалом. Есть "в загашнике" ещё десяток-полтора его альбомов, которые, со временем, появятся и на форуме.
__________________
TAIFUN.Wings of Soul

Вверх
Пользователь сказал cпасибо:
TAIFUN (25.12.2010)
  #4
Старый 15.04.2021, 07:35
sergych
Координатор
Досье
 
Аватар для sergych
По умолчанию Re: John Pizzarelli - P.S. Mr.Cole

заменил рип из интернета собственным
__________________
TAIFUN.Wings of Soul

Вверх
Пользователь сказал cпасибо:
TAIFUN (27.04.2021)
Похожие темы
Тема Автор Раздел Ответов Последнее сообщение
Альбом John Pizzarelli - Let There Be Love sergych Jazz и Blues 0 30.03.2015 19:15
Альбом John Pizzarelli - One Night With You. The John Pizzarelli Collection sergych Jazz и Blues 0 20.12.2014 08:45
Альбом John Pizzarelli - All Of Me sergych Jazz и Blues 0 27.03.2014 18:40
Альбом John Pizzarelli - Dear Mr.Cole sergych Jazz и Blues 0 08.12.2013 17:50
Сборник John Pizzarelli - The Best of John Pizzarelli. I Like Jersey Best sergych Jazz и Blues 0 16.10.2013 21:40


Метки
1996 , 1999 , funky , jazz , john pizzarelli , p.s. mr.cole , pizzarelli , smooth jazz , swing

Опции темы

Ваши права в разделе
Вы не можете создавать новые темы
Вы не можете отвечать в темах
Вы не можете прикреплять вложения
Вы не можете редактировать свои сообщения

Быстрый переход


Текущее время: 19:11. Часовой пояс GMT +3.

© 2008 - 2021 Taifun With Song
Powered by vBulletin® Version 3.8.10
Copyright ©2000 - 2021, vBulletin Solutions, Inc. Перевод: zCarot
При поддержке NIC.UA
Яндекс.Метрика
2.37220 сек. | MySQL: 17