TAIFUN With Song - качественная и редкая музыка
Навигация
Death Metal Дэт-метал обычно характеризуется крайней степенью жёсткости, интенсивности и скорости в музыке. Дэт-метал известен своей неровной сменой музыкального темпа и размера, чрезвычайно быстрой и сложной гитарной игрой и двойными басовыми барабанными партиями. Типично использование бласт-бита для добавления звуку мощи. Большинство групп используют заниженный и искажённый гитарный звук.

А знаете ли Вы, что...
Какая группа заработала 20 000 $, пока её фанаты слушали тишину?
«Музыкальный сервис Spotify, позволяющий слушать музыку онлайн, выплачивает музыкантам вознаграждение за каждый проигранный трек, если время воспроизведения составляло не меньше 30 секунд. В марте 2014 года фанк-группа Vulfpeck загрузила на Spotify альбом «Sleepify» из десяти композиций, каждая из которых представляла собой чуть больше 30 секунд тишины. Музыканты попросили своих фанатов включать его каждую ночь в зацикленном режиме. Через семь недель сервис решил всё-таки удалить альбом, но заработанных 20 000 $ группе хватило для организации тура бесплатных концертов.»
 
Опции темы

  #1
Старый 08.03.2020, 22:41
swint68
Релизёр
Досье
 
Аватар для swint68
По умолчанию Nothgard - Malady X


2018 - Nothgard - Malady X




Исполнитель/Artist: Nothgard
Альбом/Album: Malady X
Год/Year: 2018
Жанр/Genre: Melodic Death Metal, Epic Metal
Страна/Country: Германия
Рекорд-лейбл/Record label: Metal Blade Records
Номер в каталоге/Catalogue #: 3984-15614-0
Формат/Format: Free Lossless Audio Codec (*.flac)
Качество/Quality: Lossless
Тип рипа/RIP Type: image+.cue
Продолжительность/Length: 00:55:18
Источник/Source: Ilijan
Размер/Size: 488 MB

Сканы в комплекте

Треклист

01. Voyage To Decay (Intro)
02. Malady X
03. Shades Of War
04. Guardians Of Sanity
05. Epitaph
06. Deamonium I
07. Serpent Hollow
08. Devil Will Know
09. Fall Of An Empire
10. Herald Of Death
11. Black Horizon (Instrumental)
12. Eye For An Eye (bonus)
13. Ninja (bonus' Europe cover)
[свернуть]

Превью на YouTube

[свернуть]

EAC лог

Exact Audio Copy V1.3 from 2. September 2016

EAC extraction logfile from 5. December 2018, 19:17

Nothgard / Malady X

Used drive : ATAPI iHAS122 W Adapter: 2 ID: 0

Read mode : Secure
Utilize accurate stream : Yes
Defeat audio cache : Yes
Make use of C2 pointers : No

Read offset correction : 48
Overread into Lead-In and Lead-Out : No
Fill up missing offset samples with silence : Yes
Delete leading and trailing silent blocks : No
Null samples used in CRC calculations : Yes
Used interface : Installed external ASPI interface

Used output format : User Defined Encoder
Selected bitrate : 1024 kBit/s
Quality : High
Add ID3 tag : No
Command line compressor : C:\Program Files\FLAC\flac.exe
Additional command line options : -V -8 -T "Date=%year%" -T "Genre=%genre%" -T"COMMENT=Ripped by Ilijan [MeTaLMaDNeSS.TeaM]" -8 -V %source%


TOC of the extracted CD

Track | Start | Length | Start sector | End sector
---------------------------------------------------------
1 | 0:00.00 | 1:30.42 | 0 | 6791
2 | 1:30.42 | 4:40.46 | 6792 | 27837
3 | 6:11.13 | 4:15.49 | 27838 | 47011
4 | 10:26.62 | 3:42.07 | 47012 | 63668
5 | 14:08.69 | 3:58.32 | 63669 | 81550
6 | 18:07.26 | 5:04.20 | 81551 | 104370
7 | 23:11.46 | 4:44.33 | 104371 | 125703
8 | 27:56.04 | 5:01.38 | 125704 | 148316
9 | 32:57.42 | 4:13.23 | 148317 | 167314
10 | 37:10.65 | 4:55.55 | 167315 | 189494
11 | 42:06.45 | 4:31.72 | 189495 | 209891
12 | 46:38.42 | 4:49.52 | 209892 | 231618
13 | 51:28.19 | 3:49.56 | 231619 | 248849


Range status and errors

Selected range

Filename D:\Vknish+g.y.m.=3.14дарасы (Upload On Rutracker, DIE!!!)\Nothgard - Malady X.wav

Peak level 97.7 %
Extraction speed 3.1 X
Range quality 99.9 %
Test CRC EC255E0E
Copy CRC EC255E0E
Copy OK

No errors occurred


AccurateRip summary

Track 1 accurately ripped (confidence 1) [077F92D5] (AR v2)
Track 2 accurately ripped (confidence 1) [B4A6FEF1] (AR v2)
Track 3 accurately ripped (confidence 1) [536D2B59] (AR v2)
Track 4 accurately ripped (confidence 1) [AA3544AE] (AR v2)
Track 5 accurately ripped (confidence 1) [25E7D7E2] (AR v2)
Track 6 accurately ripped (confidence 1) [E15309DE] (AR v2)
Track 7 accurately ripped (confidence 1) [F4E9FA25] (AR v2)
Track 8 accurately ripped (confidence 1) [4BCA3E41] (AR v2)
Track 9 accurately ripped (confidence 1) [02CB48C9] (AR v2)
Track 10 accurately ripped (confidence 1) [AB77CE65] (AR v2)
Track 11 accurately ripped (confidence 1) [3F102B0F] (AR v2)
Track 12 accurately ripped (confidence 1) [83BB9500] (AR v2)
Track 13 accurately ripped (confidence 1) [C84EC753] (AR v2)

All tracks accurately ripped

End of status report

---- CUETools DB Plugin V2.1.6

[CTDB TOCID: Grx8zlmz3m.7IBGPL9VXf6hbEH0-] found
Submit result: Grx8zlmz3m.7IBGPL9VXf6hbEH0- has been confirmed
Track | CTDB Status
1 | (12/12) Accurately ripped
2 | (12/12) Accurately ripped
3 | (12/12) Accurately ripped
4 | (12/12) Accurately ripped
5 | (12/12) Accurately ripped
6 | (12/12) Accurately ripped
7 | (12/12) Accurately ripped
8 | (12/12) Accurately ripped
9 | (12/12) Accurately ripped
10 | (12/12) Accurately ripped
11 | (12/12) Accurately ripped
12 | (12/12) Accurately ripped
13 | (12/12) Accurately ripped


==== Log checksum 1B6A25565289D1857F1EE3ECEDC8281CA0C19396AFC6519C2A817624B1C9BF20 ====
[свернуть]

Файл CUE

REM GENRE "Melodic Death Metal"
REM DATE 2018
REM DISCID B90CF60D
REM COMMENT "ExactAudioCopy v1.3"
PERFORMER "Nothgard"
TITLE "Malady X"
FILE "Nothgard - Malady X.flac" WAVE
TRACK 01 AUDIO
TITLE "Voyage to Decay (Intro)"
PERFORMER "Nothgard"
INDEX 01 00:00:00
TRACK 02 AUDIO
TITLE "Malady X"
PERFORMER "Nothgard"
INDEX 01 01:30:42
TRACK 03 AUDIO
TITLE "Shades of War"
PERFORMER "Nothgard"
INDEX 01 06:11:13
TRACK 04 AUDIO
TITLE "Guardians of Sanity"
PERFORMER "Nothgard"
INDEX 01 10:26:62
TRACK 05 AUDIO
TITLE "Epitaph"
PERFORMER "Nothgard"
INDEX 01 14:08:69
TRACK 06 AUDIO
TITLE "Deamonium I"
PERFORMER "Nothgard"
INDEX 01 18:07:26
TRACK 07 AUDIO
TITLE "Serpent Hollow"
PERFORMER "Nothgard"
INDEX 01 23:11:46
TRACK 08 AUDIO
TITLE "Devil Will Know"
PERFORMER "Nothgard"
INDEX 01 27:56:04
TRACK 09 AUDIO
TITLE "Fall Of An Empire"
PERFORMER "Nothgard"
INDEX 01 32:57:42
TRACK 10 AUDIO
TITLE "Herald Of Death"
PERFORMER "Nothgard"
INDEX 01 37:10:65
TRACK 11 AUDIO
TITLE "Black Horizon (Instrumental)"
PERFORMER "Nothgard"
INDEX 01 42:06:45
TRACK 12 AUDIO
TITLE "Eye For An Eye (Bonus Track)"
PERFORMER "Nothgard"
INDEX 01 46:38:42
TRACK 13 AUDIO
TITLE "Ninja (Europe Cover) (Bonus Track)"
PERFORMER "Nothgard"
INDEX 01 51:28:19
[свернуть]

Лог проверки качества

-----------------------

DON'T MODIFY THIS FILE

-----------------------

PERFORMER: auCDtect Task Manager, ver. 1.6.0 RC1 build 1.6.0.1
Copyright (c) 2008-2010 y-soft. All rights reserved
[Ссылки могут видеть только зарегистрированные и активированные пользователи.]
[Only registered and activated users can see links.]

ANALYZER: auCDtect: CD records authenticity detector, version 0.8.2
Copyright (c) 2004 Oleg Berngardt. All rights reserved.
Copyright (c) 2004 Alexander Djourik. All rights reserved.


FILE: Nothgard - Malady X.flac
Size: 419452974 Hash: 797CD83246FC5E79CD0379F2AA06A5CD Accuracy: -m0
Conclusion: CDDA 100%
Signature: 208194E79FF8F2A0874B1F1F04BB23FA0770A6AF
[свернуть]

Скачать Nothgard - Malady X

[Ссылки могут видеть только зарегистрированные и активированные пользователи.]
[Only registered and activated users can see links.]
[свернуть]

Вверх
2 пользователя(ей) сказали cпасибо:
sergych (12.03.2020), TAIFUN (09.03.2020)
 
Похожие темы
Тема Автор Раздел Ответов Последнее сообщение
Релиз Nothgard - Warhorns Of Midgard PUPOKIN Pagan Metal 0 25.06.2011 09:07


Метки
2018 , epic metal , malady x , melodic death metal , nothgard

Опции темы

Ваши права в разделе
Вы не можете создавать новые темы
Вы не можете отвечать в темах
Вы не можете прикреплять вложения
Вы не можете редактировать свои сообщения

Быстрый переход


Текущее время: 19:14. Часовой пояс GMT +3.


© 2008 - 2020 Taifun With Song
Powered by vBulletin® Version 3.8.10
Copyright ©2000 - 2020, vBulletin Solutions, Inc. Перевод: zCarot
При поддержке NIC.UA
Яндекс.Метрика