TAIFUN With Song - качественная и редкая музыка
Навигация
Death Metal Дэт-метал обычно характеризуется крайней степенью жёсткости, интенсивности и скорости в музыке. Дэт-метал известен своей неровной сменой музыкального темпа и размера, чрезвычайно быстрой и сложной гитарной игрой и двойными басовыми барабанными партиями. Типично использование бласт-бита для добавления звуку мощи. Большинство групп используют заниженный и искажённый гитарный звук.

А знаете ли Вы, что...
Почему в радуге выделяют 7 цветов?
«Хотя многоцветный спектр радуги непрерывен, по традиции в нём выделяют 7 цветов. Считают, что первым выбрал это число Исаак Ньютон. Причём первоначально он различал только пять цветов — красный, жёлтый, зелёный, голубой и фиолетовый, о чём и написал в своей «Оптике». Но впоследствии, стремясь создать соответствие между числом цветов спектра и числом основных тонов музыкальной гаммы, Ньютон добавил ещё два цвета.»
 
Опции темы

  #1
Старый 07.03.2020, 21:52
swint68
Релизёр
Досье
 
Аватар для swint68
По умолчанию Brymir - Wings Of Fire


2019 - Brymir - Wings Of Fire




Исполнитель/Artist: Brymir
Альбом/Album: Wings Of Fire
Год/Year: 2019
Жанр/Genre: Melodic Death Metal, Symphonic Metal, Pagan Metal
Страна/Country: Япония
Рекорд-лейбл/Record label: Victor Entertainment Inc.
Номер в каталоге/Catalogue #: VICP-65516
Формат/Format: Free Lossless Audio Codec (*.flac)
Качество/Quality: Lossless
Тип рипа/RIP Type: image+.cue
Продолжительность/Length: 00:56:25
Источник/Source: Ilijan
Размер/Size: 472 MB

Сканы в комплекте

Треклист

01. Gloria In Regum
02. Wings Of Fire
03. Ride On, Spirit
04. Sphere Of Halcyon
05. And So We Age
06. Hails From The Edge
07. Starportal
08. Vanquish The Night
09. Lament Of The Ravenous
10. Chasing The Skyline
11. Anew (feat. Noora Louhimo)
12. Reaver (bonus)
13. Skyline (bonus' Instrumental)
[свернуть]

Превью на YouTube

[свернуть]

EAC лог

Exact Audio Copy V1.3 from 2. September 2016

EAC extraction logfile from 15. March 2019, 10:37

Brymir / Wings Of Fire (Japan)

Used drive : ATAPI iHAS124 F Adapter: 2 ID: 0

Read mode : Secure
Utilize accurate stream : Yes
Defeat audio cache : Yes
Make use of C2 pointers : No

Read offset correction : 6
Overread into Lead-In and Lead-Out : No
Fill up missing offset samples with silence : Yes
Delete leading and trailing silent blocks : No
Null samples used in CRC calculations : Yes
Used interface : Installed external ASPI interface

Used output format : User Defined Encoder
Selected bitrate : 1024 kBit/s
Quality : High
Add ID3 tag : No
Command line compressor : C:\Program Files\FLAC\flac.exe
Additional command line options : -V -8 -T "Date=%year%" -T "Genre=%genre%" -T"COMMENT=Ripped by Ilijan [MeTaLMaDNeSS.TeaM]" -8 -V %source%


TOC of the extracted CD

Track | Start | Length | Start sector | End sector
---------------------------------------------------------
1 | 0:00.00 | 4:03.09 | 0 | 18233
2 | 4:03.09 | 4:14.58 | 18234 | 37341
3 | 8:17.67 | 4:03.16 | 37342 | 55582
4 | 12:21.08 | 3:33.19 | 55583 | 71576
5 | 15:54.27 | 4:10.66 | 71577 | 90392
6 | 20:05.18 | 3:20.01 | 90393 | 105393
7 | 23:25.19 | 4:07.69 | 105394 | 123987
8 | 27:33.13 | 3:44.28 | 123988 | 140815
9 | 31:17.41 | 5:36.04 | 140816 | 166019
10 | 36:53.45 | 5:17.06 | 166020 | 189800
11 | 42:10.51 | 5:12.60 | 189801 | 213260
12 | 47:23.36 | 3:43.49 | 213261 | 230034
13 | 51:07.10 | 5:17.70 | 230035 | 253879


Range status and errors

Selected range

Filename D:\Vknish+g.y.m.+angelito (a.k.a. deminbek)=3.14дарасы (Upload On Rutracker, DIE!!!)\Brymir - Wings Of Fire (Japan).wav

Peak level 100.0 %
Extraction speed 8.2 X
Range quality 99.9 %
Test CRC A130FD59
Copy CRC A130FD59
Copy OK

No errors occurred


AccurateRip summary

Track 1 not present in database
Track 2 not present in database
Track 3 not present in database
Track 4 not present in database
Track 5 not present in database
Track 6 not present in database
Track 7 not present in database
Track 8 not present in database
Track 9 not present in database
Track 10 not present in database
Track 11 not present in database
Track 12 not present in database
Track 13 not present in database

None of the tracks are present in the AccurateRip database

End of status report

---- CUETools DB Plugin V2.1.6

[CTDB TOCID: 8A29aaRzIHGc4w1p62tavCq.OsQ-] found
Submit result: 8A29aaRzIHGc4w1p62tavCq.OsQ- has been confirmed
Track | CTDB Status
1 | (3/3) Accurately ripped
2 | (3/3) Accurately ripped
3 | (3/3) Accurately ripped
4 | (3/3) Accurately ripped
5 | (3/3) Accurately ripped
6 | (3/3) Accurately ripped
7 | (3/3) Accurately ripped
8 | (3/3) Accurately ripped
9 | (3/3) Accurately ripped
10 | (3/3) Accurately ripped
11 | (3/3) Accurately ripped
12 | (3/3) Accurately ripped
13 | (3/3) Accurately ripped


==== Log checksum 637F152D1113B777DE752440D94C9424083321EE060C47370D1BC407CD1A6E2D ====
[свернуть]

Файл CUE

REM GENRE "Melodic Death Metal"
REM DATE 2019
REM DISCID C00D390D
REM COMMENT "ExactAudioCopy v1.3"
PERFORMER "Brymir"
TITLE "Wings Of Fire (Japan)"
FILE "Brymir - Wings Of Fire (Japan).flac" WAVE
TRACK 01 AUDIO
TITLE "Gloria In Regum"
PERFORMER "Brymir"
INDEX 01 00:00:00
TRACK 02 AUDIO
TITLE "Wings Of Fire"
PERFORMER "Brymir"
INDEX 01 04:03:09
TRACK 03 AUDIO
TITLE "Ride On, Spirit"
PERFORMER "Brymir"
INDEX 01 08:17:67
TRACK 04 AUDIO
TITLE "Sphere Of Halcyon"
PERFORMER "Brymir"
INDEX 01 12:21:08
TRACK 05 AUDIO
TITLE "And So We Age"
PERFORMER "Brymir"
INDEX 01 15:54:27
TRACK 06 AUDIO
TITLE "Hails From The Edge"
PERFORMER "Brymir"
INDEX 01 20:05:18
TRACK 07 AUDIO
TITLE "Starportal"
PERFORMER "Brymir"
INDEX 01 23:25:19
TRACK 08 AUDIO
TITLE "Vanquish The Night"
PERFORMER "Brymir"
INDEX 01 27:33:13
TRACK 09 AUDIO
TITLE "Lament Of The Ravenous"
PERFORMER "Brymir"
INDEX 01 31:17:41
TRACK 10 AUDIO
TITLE "Chasing The Skyline"
PERFORMER "Brymir"
INDEX 01 36:53:45
TRACK 11 AUDIO
TITLE "Anew"
PERFORMER "Brymir"
INDEX 01 42:10:51
TRACK 12 AUDIO
TITLE "Reaver (Bonus Track)"
PERFORMER "Brymir"
INDEX 01 47:23:36
TRACK 13 AUDIO
TITLE "Skyline (Instrumental) (Bonus Track)"
PERFORMER "Brymir"
INDEX 01 51:07:10
[свернуть]

Лог проверки качества

-----------------------

DON'T MODIFY THIS FILE

-----------------------

PERFORMER: auCDtect Task Manager, ver. 1.6.0 RC1 build 1.6.0.1
Copyright © 2008-2010 y-soft. All rights reserved
[Ссылки могут видеть только зарегистрированные и активированные пользователи.]
[Only registered and activated users can see links.]

ANALYZER: auCDtect: CD records authenticity detector, version 0.8.2
Copyright © 2004 Oleg Berngardt. All rights reserved.
Copyright © 2004 Alexander Djourik. All rights reserved.


FILE: Brymir - Wings Of Fire (Japan).flac
Size: 406003429 Hash: 9F748C7897F4DE39A00E2CE413B48ABA Accuracy: -m0
Conclusion: CDDA 100%
Signature: A2657223708BFCF920A8B71AF25789978F2A09CD
[свернуть]

Скачать Brymir - Wings Of Fire

[Ссылки могут видеть только зарегистрированные и активированные пользователи.]
[Only registered and activated users can see links.]
[свернуть]

Вверх
2 пользователя(ей) сказали cпасибо:
sergych (12.03.2020), TAIFUN (08.03.2020)
 
Похожие темы
Тема Автор Раздел Ответов Последнее сообщение
Альбом Aerosmith - Get Your Wings sergych Hard Rock 0 03.05.2014 23:10
Релиз Rhapsody of Fire - Dark Wings of Steel PUPOKIN Symphonic Metal 0 15.11.2013 07:54
Live Paul McCartney & Wings - Wings Over America sergych Pop Rock 0 10.08.2013 20:24
Релиз Livingston - Fire to Fire PUPOKIN Soft Rock 0 03.09.2012 08:49
Альбом Paul McCartney & Wings - Wings At The Speed Of Sound PUPOKIN Pop Rock 0 26.07.2009 12:03


Метки
2019 , brymir , melodic death metal , pagan metal , symphonic metal , wings of fire

Опции темы

Ваши права в разделе
Вы не можете создавать новые темы
Вы не можете отвечать в темах
Вы не можете прикреплять вложения
Вы не можете редактировать свои сообщения

Быстрый переход


Текущее время: 08:52. Часовой пояс GMT +3.

© 2008 - 2020 Taifun With Song
Powered by vBulletin® Version 3.8.10
Copyright ©2000 - 2020, vBulletin Solutions, Inc. Перевод: zCarot
При поддержке NIC.UA
Яндекс.Метрика