TAIFUN With Song - качественная и редкая музыка
Навигация
Gothic Metal Жанр метала, совмещающий меланхолику готик-рока с тяжёлым саундом метала. Развитие стиля началось в середине 1990-х гг. в Европе; его истоки — в дэт- и дум-метале.

А знаете ли Вы, что...
Каким образом исполняет музыку глухонемой финский рэпер Signmark?
«Финский рэп-исполнитель Марко Вуорихеймо, выступающий под ником Signmark, с рождения глухонемой. Его альбомы выходят одновременно на CD, где записаны звуковые дорожки с вокальными версиями (в исполнении приглашённых рэперов), и DVD, где артист «читает» каждый трек на языке жестов. Signmark даёт много концертов по всему миру, ориентируясь в ритме по вибрации бита и басовой линии. Он стал первым глухим музыкантом, подписавшим контракт с одним из ведущих лейблов — Warner Music.»
 
Опции темы

  #1
Старый 07.03.2020, 08:29
swint68
Релизёр
Досье
 
Аватар для swint68
По умолчанию Crematory - Oblivion


2018 - Crematory - Oblivion




Исполнитель/Artist: Crematory
Альбом/Album: Oblivion
Год/Year: 2018
Жанр/Genre: Gothic Metal, Industrial Metal
Страна/Country: Германия
Рекорд-лейбл/Record label: Steamhammer; SPV GmbH.
Номер в каталоге/Catalogue #: SPV 284592 CD
Формат/Format: Free Lossless Audio Codec (*.flac)
Качество/Quality: Lossless
Тип рипа/RIP Type: image+.cue
Продолжительность/Length: 00:53:25
Источник/Source: Ilijan
Размер/Size: 500 MB

Сканы в комплекте

Треклист

01. Expectation
02. Salvation
03. Ghost Of The Part
04. Until The Dawn
05. Revenge Is Mine
06. Wrong Side
07. Stay With Me
08. For All Of Us
09. Immortal
10. Oblivion
11. Cemetery Stillness
12. Blessed
13. Demon Inside
[свернуть]

Превью на YouTube

[url]

EAC лог

Exact Audio Copy V1.3 from 2. September 2016

EAC extraction logfile from 20. April 2018, 17:54

Crematory / Oblivion

Used drive : ATAPI iHAS122 W Adapter: 2 ID: 0

Read mode : Secure
Utilize accurate stream : Yes
Defeat audio cache : Yes
Make use of C2 pointers : No

Read offset correction : 48
Overread into Lead-In and Lead-Out : No
Fill up missing offset samples with silence : Yes
Delete leading and trailing silent blocks : No
Null samples used in CRC calculations : Yes
Used interface : Installed external ASPI interface

Used output format : User Defined Encoder
Selected bitrate : 1024 kBit/s
Quality : High
Add ID3 tag : No
Command line compressor : C:\Program Files\FLAC\flac.exe
Additional command line options : -V -8 -T "Date=%year%" -T "Genre=%genre%" -T"COMMENT=Ripped by Ilijan [MeTaLMaDNeSS.TeaM]" -8 -V %source%


TOC of the extracted CD

Track | Start | Length | Start sector | End sector
---------------------------------------------------------
1 | 0:00.00 | 1:27.00 | 0 | 6524
2 | 1:27.00 | 4:35.70 | 6525 | 27219
3 | 6:02.70 | 3:58.73 | 27220 | 45142
4 | 10:01.68 | 4:36.20 | 45143 | 65862
5 | 14:38.13 | 4:51.14 | 65863 | 87701
6 | 19:29.27 | 4:12.23 | 87702 | 106624
7 | 23:41.50 | 4:13.14 | 106625 | 125613
8 | 27:54.64 | 4:07.50 | 125614 | 144188
9 | 32:02.39 | 3:32.34 | 144189 | 160122
10 | 35:34.73 | 4:51.69 | 160123 | 182016
11 | 40:26.67 | 4:49.63 | 182017 | 203754
12 | 45:16.55 | 4:02.47 | 203755 | 221951
13 | 49:19.27 | 4:06.11 | 221952 | 240412


Range status and errors

Selected range

Filename D:\Vknish+Devastator+ungern666+deminbek=Swolo4 (Upload On Rutracker+Me-4u, DIE!!!)\Crematory - Oblivion.wav

Peak level 99.1 %
Extraction speed 4.2 X
Range quality 100.0 %
Test CRC E3B6AB32
Copy CRC E3B6AB32
Copy OK

No errors occurred


AccurateRip summary

Track 1 not present in database
Track 2 not present in database
Track 3 not present in database
Track 4 not present in database
Track 5 not present in database
Track 6 not present in database
Track 7 not present in database
Track 8 not present in database
Track 9 not present in database
Track 10 not present in database
Track 11 not present in database
Track 12 not present in database
Track 13 not present in database

None of the tracks are present in the AccurateRip database

End of status report

---- CUETools DB Plugin V2.1.6

[CTDB TOCID: HAm5qnKfgKAXK6RfBKPeklpk1c4-] found
Submit result: HAm5qnKfgKAXK6RfBKPeklpk1c4- has been confirmed
Track | CTDB Status
1 | (9/9) Accurately ripped
2 | (9/9) Accurately ripped
3 | (9/9) Accurately ripped
4 | (9/9) Accurately ripped
5 | (9/9) Accurately ripped
6 | (9/9) Accurately ripped
7 | (9/9) Accurately ripped
8 | (9/9) Accurately ripped
9 | (9/9) Accurately ripped
10 | (9/9) Accurately ripped
11 | (9/9) Accurately ripped
12 | (9/9) Accurately ripped
13 | (9/9) Accurately ripped


==== Log checksum 5436A81FEEDCD77227F11F5681A069AC37E58A228304574F0E10F2DBE60C0A6B ====
[свернуть]

Файл CUE

REM GENRE "Gothic Metal"
REM DATE 2018
REM DISCID B10C850D
REM COMMENT "ExactAudioCopy v1.3"
PERFORMER "Crematory"
TITLE "Oblivion"
FILE "Crematory - Oblivion.flac" WAVE
TRACK 01 AUDIO
TITLE "Expectation"
PERFORMER "Crematory"
FLAGS DCP
INDEX 01 00:00:00
TRACK 02 AUDIO
TITLE "Salvation"
PERFORMER "Crematory"
FLAGS DCP
INDEX 01 01:27:00
TRACK 03 AUDIO
TITLE "Ghost of the Past"
PERFORMER "Crematory"
FLAGS DCP
INDEX 01 06:02:70
TRACK 04 AUDIO
TITLE "Until the Dawn"
PERFORMER "Crematory"
FLAGS DCP
INDEX 01 10:01:68
TRACK 05 AUDIO
TITLE "Revenge Is Mine"
PERFORMER "Crematory"
FLAGS DCP
INDEX 01 14:38:13
TRACK 06 AUDIO
TITLE "Wrong Side"
PERFORMER "Crematory"
FLAGS DCP
INDEX 01 19:29:27
TRACK 07 AUDIO
TITLE "Stay With Me"
PERFORMER "Crematory"
FLAGS DCP
INDEX 01 23:41:50
TRACK 08 AUDIO
TITLE "For All of Us"
PERFORMER "Crematory"
FLAGS DCP
INDEX 01 27:54:64
TRACK 09 AUDIO
TITLE "Immortal"
PERFORMER "Crematory"
FLAGS DCP
INDEX 01 32:02:39
TRACK 10 AUDIO
TITLE "Oblivion"
PERFORMER "Crematory"
FLAGS DCP
INDEX 01 35:34:73
TRACK 11 AUDIO
TITLE "Cemetery Stillness"
PERFORMER "Crematory"
FLAGS DCP
INDEX 01 40:26:67
TRACK 12 AUDIO
TITLE "Blessed"
PERFORMER "Crematory"
FLAGS DCP
INDEX 01 45:16:55
TRACK 13 AUDIO
TITLE "Demon Inside"
PERFORMER "Crematory"
FLAGS DCP
INDEX 01 49:19:27
[свернуть]

Лог проверки качества

-----------------------

DON'T MODIFY THIS FILE

-----------------------

PERFORMER: auCDtect Task Manager, ver. 1.6.0 RC1 build 1.6.0.1
Copyright (c) 2008-2010 y-soft. All rights reserved
[Ссылки могут видеть только зарегистрированные и активированные пользователи.]
[Only registered and activated users can see links.]

ANALYZER: auCDtect: CD records authenticity detector, version 0.8.2
Copyright (c) 2004 Oleg Berngardt. All rights reserved.
Copyright (c) 2004 Alexander Djourik. All rights reserved.


FILE: Crematory - Oblivion.flac
Size: 409293745 Hash: 399C1A4684420F69408FFD25E5DAC480 Accuracy: -m0
Conclusion: CDDA 86%
Signature: E5CD485C021C411EBFF82DF3CA159C56FF2F97D1
[свернуть]

Скачать Crematory - Oblivion

[Ссылки могут видеть только зарегистрированные и активированные пользователи.]
[Only registered and activated users can see links.]
[свернуть]

Вверх
2 пользователя(ей) сказали cпасибо:
sergych (12.03.2020), TAIFUN (07.03.2020)
 
Похожие темы
Тема Автор Раздел Ответов Последнее сообщение
Релиз The Zenith Complex - Oblivion PUPOKIN Alternative Metal 0 23.12.2016 14:57
Релиз Oblivion Denied – Truth PUPOKIN Metal 0 23.06.2016 13:55
Релиз My Autumn - Oblivion Era PUPOKIN Deathcore 0 03.10.2011 09:52
Релиз Crematory - Black Pearls PUPOKIN Gothic Metal 0 27.11.2010 09:47
Релиз Crematory - Infinity PUPOKIN Gothic Metal 0 30.01.2010 09:10


Метки
2018 , crematory , gothic metal , industrial metal , oblivion

Опции темы

Ваши права в разделе
Вы не можете создавать новые темы
Вы не можете отвечать в темах
Вы не можете прикреплять вложения
Вы не можете редактировать свои сообщения

Быстрый переход


Текущее время: 20:31. Часовой пояс GMT +3.


© 2008 - 2020 Taifun With Song
Powered by vBulletin® Version 3.8.10
Copyright ©2000 - 2020, vBulletin Solutions, Inc. Перевод: zCarot
При поддержке NIC.UA
Яндекс.Метрика