TAIFUN With Song - качественная и редкая музыка
Навигация
А знаете ли Вы, что...
Чья кровь применялась при печати комиксов?
«Участники группы KISS для раскрутки первого комикса о себе сдали кровь и смешали её с красными чернилами в издающей комикс типографии.»
 
Опции темы

  #1
Старый 19.07.2009, 11:16
sergych
Координатор
Досье
 
Аватар для sergych
Релиз Lara Fabian - 9

2005 - 9



Исполнитель/Artist: Lara Fabian
Альбом/Album: 9
Год/Year: 2005
Жанр/Genre: Pop / Acoustic / French pop
Формат/Format: mp3 CBR
Качество/Quality: 320 kbps Stereo
Размер/Size: 135.3 MB
Продолжительность/Length: 00:42:22

the 5th French album and 7th studio album

Треклист

01 - La Lettre [Lara Fabian, Jean-Felix Lalanne]
02 - Un Ave Maria [Lara Fabian, Jean-Felix Lalanne]
03 - Si Tu N'as Pas D'amour [Jean-Felix Lalanne]
04 - Il Ne Manquait Que Toi [Lara Fabian, Jean-Felix Lalanne]
05 - Ne Lui Parlez Plus D'elle [Lara Fabian, Jean-Felix Lalanne]
06 - Rien Qu'une Seul Larme [Lara Fabian, Jean-Felix Lalanne]
07 - Les Homericains [Lara Fabian, Jean-Felix Lalanne]
08 - Speranza [Lara Fabian, Jean-Felix Lalanne]
09 - Le Tour Du Monde [Lara Fabian, Jean-Felix Lalanne]
10 - L'homme Qui N'avait Pas De Maison [Lara Fabian, Jean-Felix Lalanne]
11 - Je Me Souviens [Lara Fabian, Jeremy Jouniaux]
[свернуть]
сканы в комплекте

Скачать


[Ссылки могут видеть только зарегистрированные и активированные пользователи.]
[Only registered and activated users can see links.]

password: sergych
[свернуть]

Контрольная сумма (хеш-сумма) архива

MD5: a18dfcca7f53fe05100aa1d562505e09
[свернуть]
My opinion of release: 10/10
__________________
TAIFUN.Wings of Soul


Последний раз редактировалось sergych, 23.02.2020 в 15:52. Причина: перезаливка
Вверх
Пользователь сказал cпасибо:
TAIFUN (23.02.2020)
 
  #2
Старый 23.02.2020, 16:27
sergych
Координатор
Досье
 
Аватар для sergych
Релиз Re: Lara Fabian - 9


2005 - Lara Fabian - 9




Исполнитель/Artist: Lara Fabian
Альбом/Album: 9
Год/Year: 2005
Жанр/Genre: Pop, Acoustic, French pop
Страна/Country: Европа
Рекорд-лейбл/Record label: Universal
Номер в каталоге/Catalogue #: 982 749 0
Формат/Format: Free Lossless Audio Codec (*.flac)
Качество/Quality: Lossless
Тип рипа/RIP Type: image+.cue
Продолжительность/Length: 00:42:22
Источник/Source: Из интернета
Размер/Size: 328.7 MB

Сканы в комплекте

Треклист

01 - La lettre
02 - Un ave maria
03 - Si tu n'as pas d'amour
04 - Il ne manquait que toi
05 - Ne lui parlez plus d'elle (duet with Melissa Mars)
06 - Rien qu'une seul larme
07 - Les homericains
08 - Speranza
09 - Le tour du monde
10 - L'homme qui n'avait pas de maison
11 - Je me souviens
[свернуть]

EAC лог

Exact Audio Copy V1.0 beta 3 from 29. August 2011

Отчёт EAC об извлечении, выполненном 8. февраля 2012, 15:46

Lara Fabian / 9

Дисковод: Optiarc DVD RW AD-7283S Adapter: 5 ID: 0

Режим чтения : Достоверность
Использование точного потока : Да
Отключение кэша аудио : Да
Использование указателей C2 : Нет

Коррекция смещения при чтении : 48
Способность читать области Lead-in и Lead-out : Нет
Заполнение пропущенных сэмплов тишиной : Да
Удаление блоков с тишиной в начале и конце : Нет
При вычислениях CRC использовались нулевые сэмплы : Да
Интерфейс : Встроенный Win32-интерфейс для Win NT/2000

Выходной формат : Пользовательский кодировщик
Выбранный битрейт : 768 kBit/s
Качество : Высокий
Добавление ID3-тега : Нет
Утилита сжатия : C:\Program Files (x86)\Exact Audio Copy\FLAC\FLAC.EXE
Дополнительные параметры : -6 -V -T "ARTIST=%artist%" -T "TITLE=%title%" -T "ALBUM=%albumtitle%" -T "DATE=%year%" -T "TRACKNUMBER=%tracknr%" -T "GENRE=%genre%" -T "COMMENT=%comment%" -T "BAND=%albuminterpret%" -T "ALBUMARTIST=%albuminterpret%" -T "COMPOSER=%composer%" %haslyrics%--tag-from-file=LYRICS="%lyricsfile%"%haslyrics% -T "DISCNUMBER=%cdnumber%" -T "TOTALDISCS=%totalcds%" -T "TOTALTRACKS=%numtracks%" %hascover%--picture="%coverfile%"%hascover% %source% -o %dest%


TOC извлечённого CD

Трек | Старт | Длительность | Начальный сектор | Конечный сектор
---------------------------------------------------------------------
1 | 0:00.00 | 3:52.57 | 0 | 17456
2 | 3:52.57 | 4:58.08 | 17457 | 39814
3 | 8:50.65 | 3:49.29 | 39815 | 57018
4 | 12:40.19 | 4:32.23 | 57019 | 77441
5 | 17:12.42 | 4:03.31 | 77442 | 95697
6 | 21:15.73 | 3:38.11 | 95698 | 112058
7 | 24:54.09 | 3:23.41 | 112059 | 127324
8 | 28:17.50 | 3:03.46 | 127325 | 141095
9 | 31:21.21 | 3:19.07 | 141096 | 156027
10 | 34:40.28 | 4:22.19 | 156028 | 175696
11 | 39:02.47 | 3:19.34 | 175697 | 190655


Характеристики диапазона извлечения и сообщения об ошибках

Выбранный диапазон

Имя файла Y:\Lara Fabian - Дискография\(2005) Lara Fabian - 9\Lara Fabian - 9.wav

Пиковый уровень 100.0 %
Скорость извлечения 3.7 X
Качество диапазона 100.0 %
CRC теста 77AE1561
CRC копии 77AE1561
Копирование... OK

Ошибок не произошло


AccurateRip: сводка

Трек 1 : извлечено точно (доверие 2) [7837E442] (AR v2)
Трек 2 : извлечено точно (доверие 2) [1AE78D9A] (AR v2)
Трек 3 : извлечено точно (доверие 2) [5D2A9139] (AR v2)
Трек 4 : извлечено точно (доверие 2) [E63A6F20] (AR v2)
Трек 5 : извлечено точно (доверие 2) [02F88EB4] (AR v2)
Трек 6 : извлечено точно (доверие 2) [27B9C489] (AR v2)
Трек 7 : извлечено точно (доверие 2) [11327A1A] (AR v2)
Трек 8 : извлечено точно (доверие 2) [01F6DC5F] (AR v2)
Трек 9 : извлечено точно (доверие 2) [79CC3BF9] (AR v2)
Трек 10 : извлечено точно (доверие 2) [6D6D09C0] (AR v2)
Трек 11 : извлечено точно (доверие 2) [35DA1AD6] (AR v2)

Все треки извлечены точно

Конец отчёта
[свернуть]

Файл CUE

REM GENRE Francais
REM DATE 2005
REM DISCID 9709EE0B
REM COMMENT "ExactAudioCopy v1.0b3"
PERFORMER "Lara Fabian"
TITLE "9"
FILE "Lara Fabian - 9.flac" WAVE
TRACK 01 AUDIO
TITLE "La lettre"
PERFORMER "Lara Fabian"
INDEX 01 00:00:00
TRACK 02 AUDIO
TITLE "Un ave maria"
PERFORMER "Lara Fabian"
INDEX 01 03:52:57
TRACK 03 AUDIO
TITLE "Si tu n'as pas d'amour"
PERFORMER "Lara Fabian"
INDEX 00 08:50:19
INDEX 01 08:50:65
TRACK 04 AUDIO
TITLE "Il ne manquait que toi"
PERFORMER "Lara Fabian"
INDEX 00 12:35:69
INDEX 01 12:40:19
TRACK 05 AUDIO
TITLE "Ne lui parlez plus d'elle"
PERFORMER "Lara Fabian"
INDEX 00 17:11:21
INDEX 01 17:12:42
TRACK 06 AUDIO
TITLE "Rien qu'une seul larme"
PERFORMER "Lara Fabian"
INDEX 00 21:15:61
INDEX 01 21:15:73
TRACK 07 AUDIO
TITLE "Les homericains"
PERFORMER "Lara Fabian"
INDEX 01 24:54:09
TRACK 08 AUDIO
TITLE "Speranza"
PERFORMER "Lara Fabian"
INDEX 00 28:16:06
INDEX 01 28:17:50
TRACK 09 AUDIO
TITLE "Le tour du monde"
PERFORMER "Lara Fabian"
INDEX 00 31:20:45
INDEX 01 31:21:21
TRACK 10 AUDIO
TITLE "L'homme qui n'avait pas de maison"
PERFORMER "Lara Fabian"
INDEX 00 34:38:03
INDEX 01 34:40:28
TRACK 11 AUDIO
TITLE "Je me souviens"
PERFORMER "Lara Fabian"
INDEX 00 38:59:68
INDEX 01 39:02:47
[свернуть]

Лог проверки качества

AUDIOCHECKER v2.0 beta (build 457) - by Dester - [Ссылки могут видеть только зарегистрированные и активированные пользователи.]
[Only registered and activated users can see links.]
~~~~~~~~~~~~~~~~~~~~~~~~~~~~~~~~~~
-=== НЕ РЕДАКТИРУЙТЕ ЭТОТ ФАЙЛ! ===-

Путь: ...\2005 - 9

1 -=- Lara Fabian - 9.flac -=- CDDA (100%)

262358452
[свернуть]

Спектр частот

[свернуть]

Скачать Lara Fabian - 9

[Ссылки могут видеть только зарегистрированные и активированные пользователи.]
[Only registered and activated users can see links.]

password: sergych
[свернуть]

Контрольная сумма (хеш-сумма) архива

MD5: ac099905fc1ee6f45f2772969f2374a9
[свернуть]
My opinion of release: 9/10
__________________
TAIFUN.Wings of Soul

Вверх
Пользователь сказал cпасибо:
TAIFUN (23.02.2020)
Похожие темы
Тема Автор Раздел Ответов Последнее сообщение
Релиз Lara Fabian - Je Me Souviens PUPOKIN Зарубежная Поп-Музыка 0 22.04.2011 09:03
Релиз Lara Fabian - Every Woman In Me PUPOKIN Зарубежная Поп-Музыка 0 22.10.2009 14:47
Live Lara Fabian - Live sergych Зарубежная Поп-Музыка 0 09.07.2009 04:20
Альбом Lara Fabian - Lara Fabian sergych Зарубежная Поп-Музыка 0 07.07.2009 14:52
Альбом Lara Fabian - Pure sergych Зарубежная Поп-Музыка 0 06.07.2009 18:31


Метки
2005 , acoustic , adult contemporary , dance-pop , fabian , french pop , lara , lara fabian , pop , pop rock

Опции темы

Ваши права в разделе
Вы не можете создавать новые темы
Вы не можете отвечать в темах
Вы не можете прикреплять вложения
Вы не можете редактировать свои сообщения

Быстрый переход


Текущее время: 19:16. Часовой пояс GMT +3.


© 2008 - 2020 Taifun With Song
Powered by vBulletin® Version 3.8.10
Copyright ©2000 - 2020, vBulletin Solutions, Inc. Перевод: zCarot
При поддержке NIC.UA
Яндекс.Метрика