TAIFUN With Song - качественная и редкая музыка
Навигация
А знаете ли Вы, что...
Какой наркотик, по распространённому мнению, оказал прямое влияние на выбор названия одной из песен Beatles?
«Когда Beatles записали песню "Lucy in the Sky with Diamonds", Джон Леннон объяснил происхождение названия песни тем, что так окрестил свой рисунок его сын Джулиан. Однако многие усмотрели в этом названии намёк на наркотик LSD, ведь именно такая аббревиатура складывалась из его первых букв, а BBC и вовсе запретило песню к ротации. Позже Пол Маккартни рассказал, что влияние LSD на эту песню довольно очевидно.»
 
Опции темы

  #1
Старый 17.03.2015, 18:57
sergych
Координатор
Досье
 
Аватар для sergych
FLAC Noa - Blue Touches Blue


2000 - Noa - Blue Touches Blue




Исполнитель/Artist: Noa (Achinoam Nini)
Альбом/Album: Blue Touches Blue
Год/Year: 2000
Жанр/Genre: Pop, ballads
Страна/Country: Германия
Рекорд-лейбл/Record label: Mercury Records
Номер в каталоге/Catalogue #: 542 283-2
Формат/Format: Free Lossless Audio Codec (*.flac)
Качество/Quality: Lossless
Тип рипа/RIP Type: image+.cue
Продолжительность/Length: 00:55:44
Источник/Source: Собственный рип
Размер/Size: 470.5 MB

Сканы в комплекте

Треклист

01. If I give you everything [0:03:26.35]
02. Can I reach you [0:03:48.57]
03. Explain the night [0:04:20.00]
04. Home-made religion [0:03:59.43]
05. Wrap it up with love [0:04:06.52]
06. Angel [0:03:03.15]
07. Haunted [0:03:28.10]
08. Again and again [0:03:33.50]
09. Long coat in winter [0:03:02.48]
10. Blue touches blue [0:04:42.50]
11. Carefully [0:04:42.52]
12. Dala dala [0:01:50.58]
13. Morning (boker) [0:03:47.70]
14. The beauty of that [0:04:15.57]
15. Beautiful that way (from 'La Vita E' Bella') [0:03:34.55]
[свернуть]

youtube.com

[свернуть]

EAC лог

Exact Audio Copy V1.0 beta 3 from 29. August 2011

EAC extraction logfile from 17. March 2015, 20:06

Noa / Blue touches blue

Used drive : ATAPI iHAS124 D Adapter: 0 ID: 2

Read mode : Secure
Utilize accurate stream : Yes
Defeat audio cache : Yes
Make use of C2 pointers : No

Read offset correction : 6
Overread into Lead-In and Lead-Out : No
Fill up missing offset samples with silence : Yes
Delete leading and trailing silent blocks : No
Null samples used in CRC calculations : Yes
Used interface : Installed external ASPI interface

Used output format : User Defined Encoder
Selected bitrate : 1024 kBit/s
Quality : High
Add ID3 tag : No
Command line compressor : C:\Program Files (x86)\Exact Audio Copy\Flac\flac.exe
Additional command line options : -6 -V -T "ARTIST=%artist%" -T "TITLE=%title%" -T "ALBUM=%albumtitle%" -T "DATE=%year%" -T "TRACKNUMBER=%tracknr%" -T "GENRE=%genre%" -T "COMMENT=%comment%" -T "BAND=%albuminterpret%" -T "COMPOSER=%composer%" %haslyrics%--tag-from-file=LYRICS="%lyricsfile%"%haslyrics% -T "DISCNUMBER=%cdnumber%" -T "TOTALDISCS=%totalcds%" -T "TOTALTRACKS=%numtracks%" %hascover%--picture="%coverfile%"%hascover% %source% -o %dest%


TOC of the extracted CD

Track | Start | Length | Start sector | End sector
---------------------------------------------------------
1 | 0:00.00 | 3:26.35 | 0 | 15484
2 | 3:26.35 | 3:48.57 | 15485 | 32641
3 | 7:15.17 | 4:20.00 | 32642 | 52141
4 | 11:35.17 | 3:59.43 | 52142 | 70109
5 | 15:34.60 | 4:06.52 | 70110 | 88611
6 | 19:41.37 | 3:03.15 | 88612 | 102351
7 | 22:44.52 | 3:28.10 | 102352 | 117961
8 | 26:12.62 | 3:33.50 | 117962 | 133986
9 | 29:46.37 | 3:02.48 | 133987 | 147684
10 | 32:49.10 | 4:42.50 | 147685 | 168884
11 | 37:31.60 | 4:42.52 | 168885 | 190086
12 | 42:14.37 | 1:50.58 | 190087 | 198394
13 | 44:05.20 | 3:47.70 | 198395 | 215489
14 | 47:53.15 | 4:15.57 | 215490 | 234671
15 | 52:08.72 | 3:34.55 | 234672 | 250776


Range status and errors

Selected range

Filename C:\mm\Noa\2000 - Blue Touches Blue [542 283-2]\Noa - Blue touches blue.wav

Peak level 100.0 %
Extraction speed 9.0 X
Range quality 100.0 %
Test CRC 8783ACC3
Copy CRC 8783ACC3
Copy OK

No errors occurred


AccurateRip summary

Track 1 accurately ripped (confidence 5) [5EE0FC4E] (AR v2)
Track 2 accurately ripped (confidence 5) [A30C1388] (AR v2)
Track 3 accurately ripped (confidence 5) [559F4F62] (AR v2)
Track 4 accurately ripped (confidence 5) [ADB91716] (AR v2)
Track 5 accurately ripped (confidence 5) [C2AC5440] (AR v2)
Track 6 accurately ripped (confidence 5) [37DFAE86] (AR v2)
Track 7 accurately ripped (confidence 5) [B6E2F0CC] (AR v2)
Track 8 accurately ripped (confidence 5) [D319FD14] (AR v2)
Track 9 accurately ripped (confidence 5) [8428CD10] (AR v2)
Track 10 accurately ripped (confidence 5) [A8916B16] (AR v2)
Track 11 accurately ripped (confidence 5) [EFD075CB] (AR v2)
Track 12 accurately ripped (confidence 5) [324C3A43] (AR v2)
Track 13 accurately ripped (confidence 5) [494CA1DD] (AR v2)
Track 14 accurately ripped (confidence 5) [E47B91EB] (AR v2)
Track 15 accurately ripped (confidence 5) [7BCA034F] (AR v2)

All tracks accurately ripped

End of status report
[свернуть]

Файл CUE

REM GENRE "World Music"
REM DATE 2000
REM DISCID E60D0F0F
REM COMMENT "ExactAudioCopy v1.0b3"
PERFORMER "Noa"
TITLE "Blue touches blue"
FILE "Noa - Blue touches blue.flac" WAVE
TRACK 01 AUDIO
TITLE "If I give you everything"
PERFORMER "Noa"
INDEX 01 00:00:00
TRACK 02 AUDIO
TITLE "Can I reach you"
PERFORMER "Noa"
INDEX 01 03:26:35
TRACK 03 AUDIO
TITLE "Explain the night"
PERFORMER "Noa"
INDEX 01 07:15:17
TRACK 04 AUDIO
TITLE "Home-made religion"
PERFORMER "Noa"
INDEX 01 11:35:17
TRACK 05 AUDIO
TITLE "Wrap it up with love"
PERFORMER "Noa"
INDEX 01 15:34:60
TRACK 06 AUDIO
TITLE "Angel"
PERFORMER "Noa"
INDEX 01 19:41:37
TRACK 07 AUDIO
TITLE "Haunted"
PERFORMER "Noa"
INDEX 01 22:44:52
TRACK 08 AUDIO
TITLE "Again and again"
PERFORMER "Noa"
INDEX 01 26:12:62
TRACK 09 AUDIO
TITLE "Long coat in winter"
PERFORMER "Noa"
INDEX 01 29:46:37
TRACK 10 AUDIO
TITLE "Blue touches blue"
PERFORMER "Noa"
INDEX 01 32:49:10
TRACK 11 AUDIO
TITLE "Carefully"
PERFORMER "Noa"
INDEX 01 37:31:60
TRACK 12 AUDIO
TITLE "Dala dala"
PERFORMER "Noa"
INDEX 01 42:14:37
TRACK 13 AUDIO
TITLE "Morning (boker)"
PERFORMER "Noa"
INDEX 01 44:05:20
TRACK 14 AUDIO
TITLE "The beauty of that"
PERFORMER "Noa"
INDEX 01 47:53:15
TRACK 15 AUDIO
TITLE "Beautiful that way (from 'La Vita E' Bella')"
PERFORMER "Noa"
INDEX 01 52:08:72
[свернуть]

Лог проверки качества

AUDIOCHECKER v2.0 beta (build 457) - by Dester - [Ссылки могут видеть только зарегистрированные и активированные пользователи.]
[Only registered and activated users can see links.]
~~~~~~~~~~~~~~~~~~~~~~~~~~~~~~~~~~
-=== НЕ РЕДАКТИРУЙТЕ ЭТОТ ФАЙЛ! ===-

Путь: ...\2000 - Blue Touches Blue [542 283-2]

1 -=- Noa - Blue touches blue.flac -=- CDDA (100%)

111005892
[свернуть]

Спектр частот

[свернуть]

Скачать Noa - Blue Touches Blue

[Ссылки могут видеть только зарегистрированные и активированные пользователи.]
[Only registered and activated users can see links.]

password: sergych
[свернуть]
My opinion of release: 9/10
__________________
TAIFUN.Wings of Soul

Вверх
2 пользователя(ей) сказали cпасибо:
nickos (04.10.2021), TAIFUN (04.10.2021)
 
  #2
Старый 04.10.2021, 11:14
nickos
Пользователь
Досье
 
Аватар для nickos
По умолчанию Re: Noa - Blue Touches Blue

[Отличный альбом!!!

Вверх
Похожие темы
Тема Автор Раздел Ответов Последнее сообщение
Альбом Zucchero - Blue's sergych Pop Rock 0 29.01.2015 22:26
Jay-Z - Blue PUPOKIN Зарубежный 0 20.01.2012 11:02
Релиз TQ-Kind Of Blue PUPOKIN R&B 0 11.04.2010 10:17
Сборник Systems In Blue - The Big Blue-Megamix PUPOKIN Disco 0 24.01.2010 10:08
Релиз Sugar Blue - Blue Blazes PUPOKIN Jazz и Blues 0 22.10.2009 16:07


Метки
2000 , achinoam nini , ballads , blue touches blue , noa , pop

Опции темы

Ваши права в разделе
Вы не можете создавать новые темы
Вы не можете отвечать в темах
Вы не можете прикреплять вложения
Вы не можете редактировать свои сообщения

Быстрый переход


Текущее время: 20:42. Часовой пояс GMT +3.

© 2008 - 2021 Taifun With Song
Powered by vBulletin® Version 3.8.10
Copyright ©2000 - 2021, vBulletin Solutions, Inc. Перевод: zCarot
При поддержке NIC.UA
Яндекс.Метрика
0.73629 сек. | MySQL: 17