TAIFUN With Song - качественная и редкая музыка
Навигация
А знаете ли Вы, что...
Какой суперхит изначально не планировался к созданию и не понравился исполнительнице?
«Изначально Джеймс Кэмерон не хотел включать в «Титаник» никаких песен. Однако композитор фильма Джеймс Хорнер твёрдо решил создать полноценную вокальную версию своих инструментальных наработок и сам вышел на Селин Дион с предложением спеть «My Heart Will Go On». Певице композиция совершенно не понравилась, но потом её всё же уговорили сделать одну запись, которая была показана Кэмерону. Тот утвердил песню, причём повторных записей Селин Дион не проводили, и в саундтрек была включена та самая демо-версия. В итоге она стала одним из самых продаваемых синглов в истории музыки.»
 
Опции темы

  #1
Старый 10.01.2015, 21:56
sergych
Координатор
Досье
 
Аватар для sergych
FLAC Des'ree - Endangered Species


2000 - Des'ree - Endangered Species (a compilation of rare and obscure tracks)




Исполнитель/Artist: Des'ree
Альбом/Album: Endangered Species (a compilation of rare and obscure tracks)
Год/Year: 2000
Жанр/Genre: Pop, R&B, soul
Страна/Country: Великобритания
Рекорд-лейбл/Record label: Sony Music
Номер в каталоге/Catalogue #: 500974 2
Формат/Format: Free Lossless Audio Codec (*.flac)
Качество/Quality: Lossless
Тип рипа/RIP Type: image+.cue



Продолжительность/Length: 00:58:40
Источник/Source: Собственный рип
Размер/Size: 385.9 MB

Сканы в комплекте

Треклист

01. Silent Hero [0:05:04.35]
02. Get A Life [0:03:31.57]
03. I Ain't Moving (family stand acoustic mix) [0:04:06.20]
04. Innocent & Naive [0:03:41.25]
05. Warm Hands, Cold Heart (2000) [0:04:39.63]
06. I Ain't Movin' (live) [0:05:20.02]
07. Little Child (live) [0:03:52.20]
08. Looking Philosophical [0:04:11.13]
09. Caring World [0:04:13.40]
10. Soul Mates [0:03:53.50]
11. Feel So High (recorded live in London) [0:04:50.32]
12. You Gotta Be (recorded live in London) [0:05:13.43]
13. Life (recorded live in London) [0:06:02.12]
[свернуть]

youtube.com

[свернуть]

EAC лог

Exact Audio Copy V1.0 beta 3 from 29. August 2011

EAC extraction logfile from 10. January 2015, 19:47

Des'ree / Endangered Species (a compilation of rare and obscure tracks)

Used drive : slimtype eTDU108 1 Adapter: 1 ID: 0

Read mode : Secure
Utilize accurate stream : Yes
Defeat audio cache : Yes
Make use of C2 pointers : No

Read offset correction : 0
Overread into Lead-In and Lead-Out : No
Fill up missing offset samples with silence : Yes
Delete leading and trailing silent blocks : No
Null samples used in CRC calculations : Yes
Used interface : Installed external ASPI interface

Used output format : User Defined Encoder
Selected bitrate : 1024 kBit/s
Quality : High
Add ID3 tag : No
Command line compressor : C:\Program Files (x86)\Exact Audio Copy\Flac\flac.exe
Additional command line options : -6 -V -T "ARTIST=%artist%" -T "TITLE=%title%" -T "ALBUM=%albumtitle%" -T "DATE=%year%" -T "TRACKNUMBER=%tracknr%" -T "GENRE=%genre%" -T "COMMENT=%comment%" -T "BAND=%albuminterpret%" -T "COMPOSER=%composer%" %haslyrics%--tag-from-file=LYRICS="%lyricsfile%"%haslyrics% -T "DISCNUMBER=%cdnumber%" -T "TOTALDISCS=%totalcds%" -T "TOTALTRACKS=%numtracks%" %hascover%--picture="%coverfile%"%hascover% %source% -o %dest%


TOC of the extracted CD

Track | Start | Length | Start sector | End sector
---------------------------------------------------------
1 | 0:00.00 | 5:04.35 | 0 | 22834
2 | 5:04.35 | 3:31.57 | 22835 | 38716
3 | 8:36.17 | 4:06.20 | 38717 | 57186
4 | 12:42.37 | 3:41.25 | 57187 | 73786
5 | 16:23.62 | 4:39.63 | 73787 | 94774
6 | 21:03.50 | 5:20.02 | 94775 | 118776
7 | 26:23.52 | 3:52.20 | 118777 | 136196
8 | 30:15.72 | 4:11.13 | 136197 | 155034
9 | 34:27.10 | 4:13.40 | 155035 | 174049
10 | 38:40.50 | 3:53.50 | 174050 | 191574
11 | 42:34.25 | 4:50.32 | 191575 | 213356
12 | 47:24.57 | 5:13.43 | 213357 | 236874
13 | 52:38.25 | 6:02.12 | 236875 | 264036


Range status and errors

Selected range

Filename C:\mm\Des'ree\2000 - Endangered Species [500974 2]\Des'ree - Endangered Species (a compilation of rare and obscure tracks).wav

Peak level 100.0 %
Extraction speed 4.4 X
Range quality 99.9 %
Test CRC 0C932D68
Copy CRC 0C932D68
Copy OK

No errors occurred

End of status report
[свернуть]

Файл CUE

REM GENRE Soul
REM DATE 2000
REM DISCID BC0DC00D
REM COMMENT "ExactAudioCopy v1.0b3"
PERFORMER "Des'ree"
TITLE "Endangered Species (a compilation of rare and obscure tracks)"
FILE "Des'ree - Endangered Species (a compilation of rare and obscure tracks).flac" WAVE
TRACK 01 AUDIO
TITLE "Silent Hero"
PERFORMER "Des'ree"
INDEX 01 00:00:00
TRACK 02 AUDIO
TITLE "Get A Life"
PERFORMER "Des'ree"
INDEX 00 05:03:35
INDEX 01 05:04:35
TRACK 03 AUDIO
TITLE "I Ain't Moving (family stand acoustic mix)"
PERFORMER "Des'ree"
INDEX 01 08:36:17
TRACK 04 AUDIO
TITLE "Innocent & Naive"
PERFORMER "Des'ree"
INDEX 00 12:42:25
INDEX 01 12:42:37
TRACK 05 AUDIO
TITLE "Warm Hands, Cold Heart (2000)"
PERFORMER "Des'ree"
INDEX 01 16:23:62
TRACK 06 AUDIO
TITLE "I Ain't Movin' (live)"
PERFORMER "Des'ree"
INDEX 00 21:03:20
INDEX 01 21:03:50
TRACK 07 AUDIO
TITLE "Little Child (live)"
PERFORMER "Des'ree"
INDEX 00 26:22:22
INDEX 01 26:23:52
TRACK 08 AUDIO
TITLE "Looking Philosophical"
PERFORMER "Des'ree"
INDEX 01 30:15:72
TRACK 09 AUDIO
TITLE "Caring World"
PERFORMER "Des'ree"
INDEX 00 34:26:67
INDEX 01 34:27:10
TRACK 10 AUDIO
TITLE "Soul Mates"
PERFORMER "Des'ree"
INDEX 00 38:40:19
INDEX 01 38:40:50
TRACK 11 AUDIO
TITLE "Feel So High (recorded live in London)"
PERFORMER "Des'ree"
INDEX 00 42:34:17
INDEX 01 42:34:25
TRACK 12 AUDIO
TITLE "You Gotta Be (recorded live in London)"
PERFORMER "Des'ree"
INDEX 01 47:24:57
TRACK 13 AUDIO
TITLE "Life (recorded live in London)"
PERFORMER "Des'ree"
INDEX 01 52:38:25
[свернуть]

Лог проверки качества

AUDIOCHECKER v2.0 beta (build 457) - by Dester - [Ссылки могут видеть только зарегистрированные и активированные пользователи.]
[Only registered and activated users can see links.]
~~~~~~~~~~~~~~~~~~~~~~~~~~~~~~~~~~
-=== НЕ РЕДАКТИРУЙТЕ ЭТОТ ФАЙЛ! ===-

Путь: ...\2000 - Endangered Species [500974 2]

1 -=- Des'ree - Endangered Species (a compilation of rare and obscure tracks).flac -=- CDDA (100%)

222873636
[свернуть]

Спектр частот

[свернуть]

Скачать Des'ree - Endangered Species

[Ссылки могут видеть только зарегистрированные и активированные пользователи.]
[Only registered and activated users can see links.]

password: sergych
[свернуть]
My opinion of release: 10/10
__________________
TAIFUN.Wings of Soul

Вверх
3 пользователя(ей) сказали cпасибо:
nickos (04.10.2021), swint68 (30.11.2019), TAIFUN (04.10.2021)
 
  #2
Старый 27.11.2019, 17:35
sergych
Координатор
Досье
 
Аватар для sergych
FLAC Re: Des'ree - Endangered Species


2000 - Des'ree - Endangerd Species




Исполнитель/Artist: Des'ree
Альбом/Album: Endangerd Species
Год/Year: 2000
Жанр/Genre: Pop, R&B, soul
Страна/Country: Япония
Рекорд-лейбл/Record label: Sony Music
Номер в каталоге/Catalogue #: ESCA 8097
Формат/Format: Free Lossless Audio Codec (*.flac)
Качество/Quality: Lossless
Тип рипа/RIP Type: image+.cue



Продолжительность/Length: 00:58:43
Источник/Source: Собственный рип
Размер/Size: 401.2 MB

Сканы в комплекте

Треклист

01. Silent Hero [0:05:04.32]
02. Get A Life [0:03:31.43]
03. I Ain't Movin' (Family Stand Acoustic Mix) [0:04:06.30]
04. Innocent & Naive [0:03:41.22]
05. Warm Hands, Cold Heart (2000) [0:04:39.63]
06. I Ain't Movin' (Live) [0:05:20.05]
07. Little Child (Live) [0:03:52.17]
08. Looking Philosophical [0:04:11.15]
09. Caring World [0:04:13.38]
10. Soul Mates [0:03:53.52]
11. Feel So High (Recorded Live In London) [0:04:50.20]
12. You Gotta Be (Recorded Live In London) [0:05:13.50]
13. Life (Recorded Live In London) [0:06:04.65]
[свернуть]

Превью на YouTube

[свернуть]

EAC лог

Exact Audio Copy V1.3 from 2. September 2016

EAC extraction logfile from 7. November 2019, 16:46

Des'ree / Endangerd Species

Used drive : PIONEER DVD-RW DVR-220L Adapter: 1 ID: 0

Read mode : Secure
Utilize accurate stream : Yes
Defeat audio cache : Yes
Make use of C2 pointers : No

Read offset correction : 6
Overread into Lead-In and Lead-Out : No
Fill up missing offset samples with silence : Yes
Delete leading and trailing silent blocks : No
Null samples used in CRC calculations : Yes
Used interface : Installed external ASPI interface

Used output format : User Defined Encoder
Selected bitrate : 1024 kBit/s
Quality : High
Add ID3 tag : No
Command line compressor : C:\Program Files (x86)\Exact Audio Copy\Flac\flac.exe
Additional command line options : -6 -V -T "ARTIST=%artist%" -T "TITLE=%title%" -T "ALBUM=%albumtitle%" -T "DATE=%year%" -T "TRACKNUMBER=%tracknr%" -T "GENRE=%genre%" -T "COMMENT=%comment%" -T "BAND=%albuminterpret%" -T "ALBUMARTIST=%albuminterpret%" -T "COMPOSER=%composer%" %haslyrics%--tag-from-file=LYRICS="%lyricsfile%"%haslyrics% -T "DISCNUMBER=%cdnumber%" -T "TOTALDISCS=%totalcds%" -T "TOTALTRACKS=%numtracks%" %hascover%--picture="%coverfile%"%hascover% %source% -o %dest%


TOC of the extracted CD

Track | Start | Length | Start sector | End sector
---------------------------------------------------------
1 | 0:00.00 | 5:04.32 | 0 | 22831
2 | 5:04.32 | 3:31.43 | 22832 | 38699
3 | 8:36.00 | 4:06.30 | 38700 | 57179
4 | 12:42.30 | 3:41.22 | 57180 | 73776
5 | 16:23.52 | 4:39.63 | 73777 | 94764
6 | 21:03.40 | 5:20.05 | 94765 | 118769
7 | 26:23.45 | 3:52.17 | 118770 | 136186
8 | 30:15.62 | 4:11.15 | 136187 | 155026
9 | 34:27.02 | 4:13.38 | 155027 | 174039
10 | 38:40.40 | 3:53.52 | 174040 | 191566
11 | 42:34.17 | 4:50.20 | 191567 | 213336
12 | 47:24.37 | 5:13.50 | 213337 | 236861
13 | 52:38.12 | 6:04.65 | 236862 | 264226
14 | 61:15.02 | 5:42.30 | 275627 | 301306


Range status and errors

Selected range

Filename C:\mm\Des'ree\2000 - Endangered Species [ESCA 8097]\Des'ree - Endangerd Species.wav

Peak level 100.0 %
Extraction speed 8.1 X
Range quality 100.0 %
Test CRC 2FB23227
Copy CRC 2FB23227
Copy OK

No errors occurred


AccurateRip summary

Track 1 accurately ripped (confidence 9) [980FA855] (AR v2)
Track 2 accurately ripped (confidence 9) [E43DB57C] (AR v2)
Track 3 accurately ripped (confidence 9) [9ABCE26D] (AR v2)
Track 4 accurately ripped (confidence 9) [0D71C71E] (AR v2)
Track 5 accurately ripped (confidence 9) [B730C91B] (AR v2)
Track 6 accurately ripped (confidence 9) [456A6CAB] (AR v2)
Track 7 accurately ripped (confidence 9) [0F773EC4] (AR v2)
Track 8 accurately ripped (confidence 9) [2E15EA38] (AR v2)
Track 9 accurately ripped (confidence 9) [47A62F2F] (AR v2)
Track 10 accurately ripped (confidence 9) [1F8A6C55] (AR v2)
Track 11 accurately ripped (confidence 9) [2AC8D416] (AR v2)
Track 12 accurately ripped (confidence 9) [F03BD89C] (AR v2)
Track 13 accurately ripped (confidence 9) [6D5C91D6] (AR v2)

All tracks accurately ripped

End of status report
[свернуть]

Файл CUE

REM GENRE Soul
REM DATE 2000
REM DISCID D30FB10E
REM COMMENT "ExactAudioCopy v1.3"
PERFORMER "Des'ree"
TITLE "Endangerd Species"
REM COMPOSER ""
FILE "Des'ree - Endangerd Species.flac" WAVE
TRACK 01 AUDIO
TITLE "Silent Hero"
PERFORMER "Des'ree"
REM COMPOSER ""
INDEX 01 00:00:00
TRACK 02 AUDIO
TITLE "Get A Life"
PERFORMER "Des'ree"
REM COMPOSER ""
INDEX 01 05:04:32
TRACK 03 AUDIO
TITLE "I Ain't Movin' (Family Stand Acoustic Mix)"
PERFORMER "Des'ree"
REM COMPOSER ""
INDEX 01 08:36:00
TRACK 04 AUDIO
TITLE "Innocent & Naive"
PERFORMER "Des'ree"
REM COMPOSER ""
INDEX 01 12:42:30
TRACK 05 AUDIO
TITLE "Warm Hands, Cold Heart (2000)"
PERFORMER "Des'ree"
REM COMPOSER ""
INDEX 01 16:23:52
TRACK 06 AUDIO
TITLE "I Ain't Movin' (Live)"
PERFORMER "Des'ree"
REM COMPOSER ""
INDEX 01 21:03:40
TRACK 07 AUDIO
TITLE "Little Child (Live)"
PERFORMER "Des'ree"
REM COMPOSER ""
INDEX 01 26:23:45
TRACK 08 AUDIO
TITLE "Looking Philosophical"
PERFORMER "Des'ree"
REM COMPOSER ""
INDEX 01 30:15:62
TRACK 09 AUDIO
TITLE "Caring World"
PERFORMER "Des'ree"
REM COMPOSER ""
INDEX 01 34:27:02
TRACK 10 AUDIO
TITLE "Soul Mates"
PERFORMER "Des'ree"
REM COMPOSER ""
INDEX 01 38:40:40
TRACK 11 AUDIO
TITLE "Feel So High (Recorded Live In London)"
PERFORMER "Des'ree"
REM COMPOSER ""
INDEX 01 42:34:17
TRACK 12 AUDIO
TITLE "You Gotta Be (Recorded Live In London)"
PERFORMER "Des'ree"
REM COMPOSER ""
INDEX 01 47:24:37
TRACK 13 AUDIO
TITLE "Life (Recorded Live In London)"
PERFORMER "Des'ree"
REM COMPOSER ""
INDEX 01 52:38:12
[свернуть]

Лог проверки качества

AUDIOCHECKER v2.0 beta (build 457) - by Dester - [Ссылки могут видеть только зарегистрированные и активированные пользователи.]
[Only registered and activated users can see links.]
~~~~~~~~~~~~~~~~~~~~~~~~~~~~~~~~~~
-=== НЕ РЕДАКТИРУЙТЕ ЭТОТ ФАЙЛ! ===-

Путь: ...\2000 - Endangered Species [ESCA 8097]

1 -=- Des'ree - Endangerd Species.flac -=- CDDA (100%)

206187460
[свернуть]

Спектр частот

[свернуть]

Скачать Des'ree - Endangerd Species

[Ссылки могут видеть только зарегистрированные и активированные пользователи.]
[Only registered and activated users can see links.]

password: sergych
[свернуть]

Контрольная сумма (хеш-сумма) архива

MD5: 3409521896338ba647f365e51befcdae
[свернуть]
My opinion of release: 10/10

Release info RInfo

мультимедийник от японцев. Лучше бы вместо ролика "Life" с низким разрешением добавили какой-нибудь бонус-трек .
__________________
TAIFUN.Wings of Soul

Вверх
4 пользователя(ей) сказали cпасибо:
johnsilver (06.12.2019), swint68 (30.11.2019), TAIFUN (29.11.2019), Павел1 (14.12.2019)
  #3
Старый 04.10.2021, 11:18
nickos
Пользователь
Досье
 
Аватар для nickos
По умолчанию Re: Des'ree - Endangered Species

Замечательный вокал!

Вверх
Похожие темы
Тема Автор Раздел Ответов Последнее сообщение
Big Pun - Endangered Species Alex1990 Зарубежный 0 01.06.2008 16:12
Black Sun Empire - Endangered Species DarkDan Drum & Bass 0 15.04.2008 11:56


Метки
2000 , des'ree , endangered species (a compilation of rare and obscure tracks) , japan , pop , r&b , soul

Опции темы

Ваши права в разделе
Вы не можете создавать новые темы
Вы не можете отвечать в темах
Вы не можете прикреплять вложения
Вы не можете редактировать свои сообщения

Быстрый переход


Текущее время: 21:43. Часовой пояс GMT +3.

© 2008 - 2021 Taifun With Song
Powered by vBulletin® Version 3.8.10
Copyright ©2000 - 2021, vBulletin Solutions, Inc. Перевод: zCarot
При поддержке NIC.UA
Яндекс.Метрика
0.56325 сек. | MySQL: 17