TAIFUN With Song - качественная и редкая музыка
Навигация
Hard Rock То, что может восприниматься слушателем как «тяжесть» в хард-роке, достигается, в частности, за счет специфического звучания электрогитары (с такими эффектами, как например, дисторшн и овердрайв) и работы ритм-секции. «Классический» хард-рок обрёл формы в конце 1960-х — начале 1970-х годов в Великобритании. Классический хард-рок отличается от хеви-металла более мелодичным звучанием.

А знаете ли Вы, что...
Почему песня «Nothing Else Matters» начинается перебором на открытых струнах?
«В начале песни «Nothing Else Matters» группы Metallica слышен перебор на открытых первой, второй, третьей и шестой струнах. Такое композиционное решение появилось благодаря тому, что её автор Джеймс Хэтфилд, когда начинал сочинять песню, одной рукой держал телефонную трубку и разговаривал со своей девушкой.»
 
Опции темы

  #1
Старый 19.08.2008, 06:25
sergych
Координатор
Досье
 
Аватар для sergych
Релиз Def Leppard - Euphoria

1999 - Euphoria



Исполнитель/Artist: Def Leppard
Альбом/Album: Euphoria
Год/Year: 1999
Жанр/Genre: Hard rock
Формат/Format: mp3 CBR
Качество/Quality: 320 kbps Stereo
Размер/Size: 117.1 MB
Продолжительность/Length: 00:51:02

the seventh studio album

Треклист

01 - Demolition Man
02 - Promises
03 - Back In Your Face
04 - Goodbye
05 - All Night
06 - Paper Sun
07 - It's Only Love
08 - 21st Century Sha La La La Girl
09 - To Be Alive
10 - Disintegrate
11 - Guilty
12 - Day After Day
13 - Kings Of Oblivion
[свернуть]
Все песни содержат текст и обложку

Скачать


[Ссылки могут видеть только зарегистрированные и активированные пользователи.]
[Only registered and activated users can see links.]

Pass: sergych
[свернуть]
__________________
TAIFUN.Wings of Soul


Последний раз редактировалось sergych, 03.09.2019 в 12:31. Причина: перезаливка с умершего narod.ru
Вверх
  #2
Старый 01.10.2019, 18:05
sergych
Координатор
Досье
 
Аватар для sergych
Релиз Re: Def Leppard - Euphoria


1999 - Def Leppard - Euphoria




Исполнитель/Artist: Def Leppard
Альбом/Album: Euphoria
Год/Year: 1999
Ремастеринг/Remaster: 2001
Жанр/Genre: Hard rock, glam metal
Страна/Country: Япония
Рекорд-лейбл/Record label: Mercury
Номер в каталоге/Catalogue #: PHCW-1030
Формат/Format: Free Lossless Audio Codec (*.flac)
Качество/Quality: Lossless
Тип рипа/RIP Type: image+.cue
Продолжительность/Length: 00:54:41
Источник/Source: Собственный рип
Размер/Size: 438.4 MB

Сканы в комплекте

Треклист

01. Demolition Man [0:03:24.15]
02. Promises [0:03:59.55]
03. Back In Your Face [0:03:20.12]
04. Goodbye [0:03:35.70]
05. All Night [0:03:37.55]
06. Paper Sun [0:05:27.20]
07. It's Only Love [0:04:06.18]
08. 21st Century Sha La La La Girl [0:04:06.55]
09. To Be Alive [0:03:52.52]
10. Disintegrate [0:02:50.53]
11. Guilty [0:03:46.50]
12. Day After Day [0:04:36.35]
13. Kings Of Oblivion [0:04:22.02]

Bonus track
14. I Am Your Child [0:03:34.40]
[свернуть]

Превью на YouTube

[свернуть]

Исполнители/Performers

Joe Elliott – lead vocals
Phil Collen – guitar, vocals
Vivian Campbell – guitar, vocals
Rick Savage – bass guitar, vocals
Rick Allen – drums

Additional musicians
Robert John "Mutt" Lange – additional vocals (on "Promises" and "All Night"), additional guitars (on "All Night")
Damon "Demon" Hill – end guitar solo (on "Demolition Man")
Ciaran McGoldrick – hey's & claps (on "Back in Your Face")
Gary Sullivan – hey's & claps (on "Back in Your Face")
Ricky Warwick – hey's & claps (on "Back in Your Face")
[свернуть]

EAC лог

Exact Audio Copy V1.3 from 2. September 2016

EAC extraction logfile from 28. September 2019, 12:03

Def Leppard / Euphoria

Used drive : PIONEER DVD-RW DVR-220L Adapter: 1 ID: 0

Read mode : Secure
Utilize accurate stream : Yes
Defeat audio cache : Yes
Make use of C2 pointers : No

Read offset correction : 6
Overread into Lead-In and Lead-Out : No
Fill up missing offset samples with silence : Yes
Delete leading and trailing silent blocks : No
Null samples used in CRC calculations : Yes
Used interface : Installed external ASPI interface

Used output format : User Defined Encoder
Selected bitrate : 1024 kBit/s
Quality : High
Add ID3 tag : No
Command line compressor : C:\Program Files (x86)\Exact Audio Copy\Flac\flac.exe
Additional command line options : -6 -V -T "ARTIST=%artist%" -T "TITLE=%title%" -T "ALBUM=%albumtitle%" -T "DATE=%year%" -T "TRACKNUMBER=%tracknr%" -T "GENRE=%genre%" -T "COMMENT=%comment%" -T "BAND=%albuminterpret%" -T "ALBUMARTIST=%albuminterpret%" -T "COMPOSER=%composer%" %haslyrics%--tag-from-file=LYRICS="%lyricsfile%"%haslyrics% -T "DISCNUMBER=%cdnumber%" -T "TOTALDISCS=%totalcds%" -T "TOTALTRACKS=%numtracks%" %hascover%--picture="%coverfile%"%hascover% %source% -o %dest%


TOC of the extracted CD

Track | Start | Length | Start sector | End sector
---------------------------------------------------------
1 | 0:00.00 | 3:24.15 | 0 | 15314
2 | 3:24.15 | 3:59.55 | 15315 | 33294
3 | 7:23.70 | 3:20.12 | 33295 | 48306
4 | 10:44.07 | 3:35.70 | 48307 | 64501
5 | 14:20.02 | 3:37.55 | 64502 | 80831
6 | 17:57.57 | 5:27.20 | 80832 | 105376
7 | 23:25.02 | 4:06.18 | 105377 | 123844
8 | 27:31.20 | 4:06.55 | 123845 | 142349
9 | 31:38.00 | 3:52.52 | 142350 | 159801
10 | 35:30.52 | 2:50.53 | 159802 | 172604
11 | 38:21.30 | 3:46.50 | 172605 | 189604
12 | 42:08.05 | 4:36.35 | 189605 | 210339
13 | 46:44.40 | 4:22.02 | 210340 | 229991
14 | 51:06.42 | 3:34.40 | 229992 | 246081


Range status and errors

Selected range

Filename C:\mm\Def Leppard\1999 - Euphoria [PHVW-1030]\Def Leppard - Euphoria.wav

Peak level 100.0 %
Extraction speed 7.3 X
Range quality 100.0 %
Test CRC F6851247
Copy CRC F6851247
Copy OK

No errors occurred


AccurateRip summary

Track 1 accurately ripped (confidence 13) [01231CEF] (AR v2)
Track 2 accurately ripped (confidence 13) [2ED78E58] (AR v2)
Track 3 accurately ripped (confidence 13) [5559B815] (AR v2)
Track 4 accurately ripped (confidence 13) [94A68C84] (AR v2)
Track 5 accurately ripped (confidence 13) [4657A5DF] (AR v2)
Track 6 accurately ripped (confidence 13) [FE8A3E40] (AR v2)
Track 7 accurately ripped (confidence 13) [76502983] (AR v2)
Track 8 accurately ripped (confidence 13) [9B2BF1E9] (AR v2)
Track 9 accurately ripped (confidence 13) [A1024B60] (AR v2)
Track 10 accurately ripped (confidence 13) [A0779A8D] (AR v2)
Track 11 accurately ripped (confidence 13) [A3A50EE5] (AR v2)
Track 12 accurately ripped (confidence 13) [F60BF672] (AR v2)
Track 13 accurately ripped (confidence 13) [0E96489E] (AR v2)
Track 14 accurately ripped (confidence 13) [87C63071] (AR v2)

All tracks accurately ripped

End of status report
[свернуть]

Файл CUE

REM GENRE Rock
REM DATE 1999
REM DISCID A80CD10E
REM COMMENT "ExactAudioCopy v1.3"
PERFORMER "Def Leppard"
TITLE "Euphoria"
REM COMPOSER ""
FILE "Def Leppard - Euphoria.flac" WAVE
TRACK 01 AUDIO
TITLE "Demolition Man"
PERFORMER "Def Leppard"
REM COMPOSER ""
INDEX 01 00:00:00
TRACK 02 AUDIO
TITLE "Promises"
PERFORMER "Def Leppard"
REM COMPOSER ""
INDEX 01 03:24:15
TRACK 03 AUDIO
TITLE "Back In Your Face"
PERFORMER "Def Leppard"
REM COMPOSER ""
INDEX 00 07:23:52
INDEX 01 07:23:70
TRACK 04 AUDIO
TITLE "Goodbye"
PERFORMER "Def Leppard"
REM COMPOSER ""
INDEX 00 10:43:60
INDEX 01 10:44:07
TRACK 05 AUDIO
TITLE "All Night"
PERFORMER "Def Leppard"
REM COMPOSER ""
INDEX 01 14:20:02
TRACK 06 AUDIO
TITLE "Paper Sun"
PERFORMER "Def Leppard"
REM COMPOSER ""
INDEX 01 17:57:57
TRACK 07 AUDIO
TITLE "It's Only Love"
PERFORMER "Def Leppard"
REM COMPOSER ""
INDEX 01 23:25:02
TRACK 08 AUDIO
TITLE "21st Century Sha La La La Girl"
PERFORMER "Def Leppard"
REM COMPOSER ""
INDEX 01 27:31:20
TRACK 09 AUDIO
TITLE "To Be Alive"
PERFORMER "Def Leppard"
REM COMPOSER ""
INDEX 00 31:37:07
INDEX 01 31:38:00
TRACK 10 AUDIO
TITLE "Disintegrate"
PERFORMER "Def Leppard"
REM COMPOSER ""
INDEX 01 35:30:52
TRACK 11 AUDIO
TITLE "Guilty"
PERFORMER "Def Leppard"
REM COMPOSER ""
INDEX 01 38:21:30
TRACK 12 AUDIO
TITLE "Day After Day"
PERFORMER "Def Leppard"
REM COMPOSER ""
INDEX 00 42:07:65
INDEX 01 42:08:05
TRACK 13 AUDIO
TITLE "Kings Of Oblivion"
PERFORMER "Def Leppard"
REM COMPOSER ""
INDEX 00 46:44:27
INDEX 01 46:44:40
TRACK 14 AUDIO
TITLE "I Am Your Child"
PERFORMER "Def Leppard"
REM COMPOSER ""
INDEX 00 51:02:52
INDEX 01 51:06:42
[свернуть]

Лог проверки качества

AUDIOCHECKER v2.0 beta (build 457) - by Dester - [Ссылки могут видеть только зарегистрированные и активированные пользователи.]
[Only registered and activated users can see links.]
~~~~~~~~~~~~~~~~~~~~~~~~~~~~~~~~~~
-=== НЕ РЕДАКТИРУЙТЕ ЭТОТ ФАЙЛ! ===-

Путь: ...\1999 - Euphoria [PHVW-1030]

1 -=- Def Leppard - Euphoria.flac -=- CDDA (100%)

261426932
[свернуть]

Спектр частот

[свернуть]

Скачать Def Leppard - Euphoria

[Ссылки могут видеть только зарегистрированные и активированные пользователи.]
[Only registered and activated users can see links.]

password: sergych
[свернуть]

Контрольная сумма (хеш-сумма) архива

MD5: 750ed524ee09c49d107bfdf0e587fd01
[свернуть]
My opinion of release: 10/10
__________________
TAIFUN.Wings of Soul

Вверх
3 пользователя(ей) сказали cпасибо:
burnett_s (03.10.2019), Lighting1981 (02.10.2019), TAIFUN (09.10.2019)
Похожие темы
Тема Автор Раздел Ответов Последнее сообщение
Сборник Def Leppard - Vault: Def Leppard Greatest Hits (1980–1995) sergych Hard Rock 0 13.09.2016 21:12
Сборник Psy Trance Euphoria 2 PUPOKIN Trance 0 25.01.2009 09:48
Euphoria Tolich Trance 0 06.10.2008 19:24
Vocal Euphoria II PUPOKIN House 0 28.09.2008 11:19
Solarsoul - Euphoria vol.2 DarkDan Ambient 0 01.05.2008 19:31


Метки
1999 , def leppard , euphoria , glam metal , hard rock

Опции темы

Ваши права в разделе
Вы не можете создавать новые темы
Вы не можете отвечать в темах
Вы не можете прикреплять вложения
Вы не можете редактировать свои сообщения

Быстрый переход




Текущее время: 08:01. Часовой пояс GMT +3.
Powered by vBulletin® Version 3.8.10
Copyright ©2000 - 2019, vBulletin Solutions, Inc. Перевод: zCarot
© 2008 - 2019 Taifun With Song
Яндекс.Метрика