TAIFUN With Song - качественная и редкая музыка
Навигация
Blues Rock К концу сороковых годов прошлого столетия в блюзе окончательно обосновалась электрогитара. Трудно сказать, что подтолкнуло многих блюзменов перейти с привычной акустической гитары на электрическую, но блюз с тех пор очень сильно изменился.

А знаете ли Вы, что...
Что значил жест «коза» до эпохи рока и металла?
«Жест «коза» существовал долгое время как магический знак для защиты от сглаза и злых духов. Ронни Джеймс Дио — солист групп Rainbow и Black Sabbath — был первым, кто показал этот жест на рок-концерте. Фанаты переняли его и теперь «коза» очень популярна среди рокеров и металлистов.»
 
Опции темы

  #1
Старый 03.10.2019, 22:57
sergych
Координатор
Досье
 
Аватар для sergych
Релиз Joe Cocker - Respect Yourself


2002 - Joe Cocker - Respect Yourself




Исполнитель/Artist: Joe Cocker
Альбом/Album: Respect Yourself
Год/Year: 2002
Жанр/Genre: Blues rock, rock
Страна/Country: Канада
Рекорд-лейбл/Record label: Eagle Records
Номер в каталоге/Catalogue #: P2 59480
Формат/Format: Free Lossless Audio Codec (*.flac)
Качество/Quality: Lossless
Тип рипа/RIP Type: image+.cue
Продолжительность/Length: 00:48:48
Источник/Source: Собственный рип
Размер/Size: 368.3 MB

Сканы в комплекте

Треклист

01. You Can't Have My Heart [0:04:02.69]
02. Love Not War [0:04:01.60]
03. You Took It So Hard [0:04:29.18]
04. Never Tear Us Apart [0:04:04.62]
05. This Is Your Life [0:04:36.24]
06. Respect Yourself [0:05:15.49]
07. I'm Listening Now [0:05:02.52]
08. Leave A Light On [0:04:34.22]
09. It's Only Love [0:03:56.73]
10. Every Time It Rains [0:03:35.40]
11. Midnight Without You [0:05:07.58]
[свернуть]

Превью на YouTube

[свернуть]

Исполнители/Performers

Joe Cocker – vocals
John Shanks – guitar, backing vocals, production
Rusty Anderson, Tim Pierce – guitar
Paul Bushnell – bass
C. J. Vanston – Hammond organ, horn arrangements
Patrick Warren – synthesizer, keyboards, Hammond organ, Wurlitzer, Chamberlin, synthesizer strings, string arrangements
Bruce Eskovitz – saxophone
Nick Lane – trombone
Chris Tedesco, William Churchville – trumpet
Kenny Aronoff – drums
Lenny Castro – percussion
C.C. White, Julia Waters, Lucy Woodward, Maxine Waters – backing vocals
[свернуть]

EAC лог

Exact Audio Copy V1.3 from 2. September 2016

EAC extraction logfile from 17. August 2019, 10:32

Joe Cocker / Respect Yourself

Used drive : PIONEER DVD-RW DVR-220L Adapter: 1 ID: 0

Read mode : Secure
Utilize accurate stream : Yes
Defeat audio cache : Yes
Make use of C2 pointers : No

Read offset correction : 6
Overread into Lead-In and Lead-Out : No
Fill up missing offset samples with silence : Yes
Delete leading and trailing silent blocks : No
Null samples used in CRC calculations : Yes
Used interface : Installed external ASPI interface

Used output format : User Defined Encoder
Selected bitrate : 1024 kBit/s
Quality : High
Add ID3 tag : No
Command line compressor : C:\Program Files (x86)\Exact Audio Copy\Flac\flac.exe
Additional command line options : -6 -V -T "ARTIST=%artist%" -T "TITLE=%title%" -T "ALBUM=%albumtitle%" -T "DATE=%year%" -T "TRACKNUMBER=%tracknr%" -T "GENRE=%genre%" -T "COMMENT=%comment%" -T "BAND=%albuminterpret%" -T "ALBUMARTIST=%albuminterpret%" -T "COMPOSER=%composer%" %haslyrics%--tag-from-file=LYRICS="%lyricsfile%"%haslyrics% -T "DISCNUMBER=%cdnumber%" -T "TOTALDISCS=%totalcds%" -T "TOTALTRACKS=%numtracks%" %hascover%--picture="%coverfile%"%hascover% %source% -o %dest%


TOC of the extracted CD

Track | Start | Length | Start sector | End sector
---------------------------------------------------------
1 | 0:00.00 | 4:02.69 | 0 | 18218
2 | 4:02.69 | 4:01.60 | 18219 | 36353
3 | 8:04.54 | 4:29.18 | 36354 | 56546
4 | 12:33.72 | 4:04.62 | 56547 | 74908
5 | 16:38.59 | 4:36.24 | 74909 | 95632
6 | 21:15.08 | 5:15.49 | 95633 | 119306
7 | 26:30.57 | 5:02.52 | 119307 | 142008
8 | 31:33.34 | 4:34.22 | 142009 | 162580
9 | 36:07.56 | 3:56.73 | 162581 | 180353
10 | 40:04.54 | 3:35.40 | 180354 | 196518
11 | 43:40.19 | 5:07.58 | 196519 | 219601


Range status and errors

Selected range

Filename C:\mm\Joe Cocker\2002 - Respect Yourself [P2 59480]\Joe Cocker - Respect Yourself.wav

Peak level 100.0 %
Extraction speed 7.4 X
Range quality 100.0 %
Test CRC 01FB1886
Copy CRC 01FB1886
Copy OK

No errors occurred


AccurateRip summary

Track 1 accurately ripped (confidence 4) [FAE26905] (AR v2)
Track 2 accurately ripped (confidence 4) [552A994F] (AR v2)
Track 3 accurately ripped (confidence 4) [053A56E6] (AR v2)
Track 4 accurately ripped (confidence 4) [5F6F0983] (AR v2)
Track 5 accurately ripped (confidence 4) [5CCDCF33] (AR v2)
Track 6 accurately ripped (confidence 4) [7C994B27] (AR v2)
Track 7 accurately ripped (confidence 4) [290192CA] (AR v2)
Track 8 accurately ripped (confidence 4) [305A9A92] (AR v2)
Track 9 accurately ripped (confidence 4) [D1346104] (AR v2)
Track 10 accurately ripped (confidence 4) [AA647860] (AR v2)
Track 11 accurately ripped (confidence 4) [B0F5682D] (AR v2)

All tracks accurately ripped

End of status report
[свернуть]

Файл CUE

REM GENRE Rock
REM DATE 2002
REM DISCID 930B700B
REM COMMENT "ExactAudioCopy v1.3"
PERFORMER "Joe Cocker"
TITLE "Respect Yourself"
REM COMPOSER ""
FILE "Joe Cocker - Respect Yourself.flac" WAVE
TRACK 01 AUDIO
TITLE "You Can't Have My Heart"
PERFORMER "Joe Cocker"
REM COMPOSER ""
INDEX 01 00:00:00
TRACK 02 AUDIO
TITLE "Love Not War"
PERFORMER "Joe Cocker"
REM COMPOSER ""
INDEX 00 04:00:71
INDEX 01 04:02:69
TRACK 03 AUDIO
TITLE "You Took It So Hard"
PERFORMER "Joe Cocker"
REM COMPOSER ""
INDEX 00 08:03:14
INDEX 01 08:04:54
TRACK 04 AUDIO
TITLE "Never Tear Us Apart"
PERFORMER "Joe Cocker"
REM COMPOSER ""
INDEX 00 12:31:74
INDEX 01 12:33:72
TRACK 05 AUDIO
TITLE "This Is Your Life"
PERFORMER "Joe Cocker"
REM COMPOSER ""
INDEX 00 16:36:64
INDEX 01 16:38:59
TRACK 06 AUDIO
TITLE "Respect Yourself"
PERFORMER "Joe Cocker"
REM COMPOSER ""
INDEX 00 21:13:13
INDEX 01 21:15:08
TRACK 07 AUDIO
TITLE "I'm Listening Now"
PERFORMER "Joe Cocker"
REM COMPOSER ""
INDEX 00 26:29:29
INDEX 01 26:30:57
TRACK 08 AUDIO
TITLE "Leave A Light On"
PERFORMER "Joe Cocker"
REM COMPOSER ""
INDEX 00 31:32:06
INDEX 01 31:33:34
TRACK 09 AUDIO
TITLE "It's Only Love"
PERFORMER "Joe Cocker"
REM COMPOSER ""
INDEX 00 36:06:74
INDEX 01 36:07:56
TRACK 10 AUDIO
TITLE "Every Time It Rains"
PERFORMER "Joe Cocker"
REM COMPOSER ""
INDEX 00 40:03:39
INDEX 01 40:04:54
TRACK 11 AUDIO
TITLE "Midnight Without You"
PERFORMER "Joe Cocker"
REM COMPOSER ""
INDEX 00 43:38:41
INDEX 01 43:40:19
[свернуть]

Лог проверки качества

AUDIOCHECKER v2.0 beta (build 457) - by Dester - [Ссылки могут видеть только зарегистрированные и активированные пользователи.]
[Only registered and activated users can see links.]
~~~~~~~~~~~~~~~~~~~~~~~~~~~~~~~~~~
-=== НЕ РЕДАКТИРУЙТЕ ЭТОТ ФАЙЛ! ===-

Путь: ...\2002 - Respect Yourself [P2 59480]

1 -=- Joe Cocker - Respect Yourself.flac -=- CDDA (100%)

242639348
[свернуть]

Спектр частот

[свернуть]

Скачать Joe Cocker - Respect Yourself

[Ссылки могут видеть только зарегистрированные и активированные пользователи.]
[Only registered and activated users can see links.]

password: sergych
[свернуть]

Контрольная сумма (хеш-сумма) архива

MD5: dfe96061e1b460aeb04979c2243d2666
[свернуть]
My opinion of release: 10/10
__________________
TAIFUN.Wings of Soul

Вверх
Пользователь сказал cпасибо:
TAIFUN (09.10.2019)
Похожие темы
Тема Автор Раздел Ответов Последнее сообщение
Альбом Oscar Peterson Trio - With Respect To Nat sergych Jazz и Blues 1 21.06.2018 23:28
Сборник Joe Cocker - The Best Of Joe Cocker {20th Century Masters. The Millennium Collection} sergych Blues Rock 0 07.08.2015 17:32
Сборник Joe Cocker - The Essential Joe Cocker sergych Blues Rock 0 09.04.2015 19:48
Сборник Joe Cocker - Joe Cocker's Greatest Hits sergych Blues Rock 0 15.04.2014 19:31
Альбом Joe Cocker - Respect Yourself PUPOKIN Blues Rock 0 18.04.2009 10:42


Метки
2002 , blues rock , joe cocker , respect yourself , rock

Опции темы

Ваши права в разделе
Вы не можете создавать новые темы
Вы не можете отвечать в темах
Вы не можете прикреплять вложения
Вы не можете редактировать свои сообщения

Быстрый переход




Текущее время: 20:48. Часовой пояс GMT +3.
Powered by vBulletin® Version 3.8.10
Copyright ©2000 - 2020, vBulletin Solutions, Inc. Перевод: zCarot
© 2008 - 2020 Taifun With Song
Яндекс.Метрика