TAIFUN With Song - качественная и редкая музыка
Навигация
Pop Rock Поп-рок — жанр музыки, объединяющий элементы поп-музыки и рок-музыки. Песни характеризуются простой структурой, запоминающимися мелодиями, повторением музыкальных фраз (от попа), использованием в качестве основных инструментов электрогитар и ударных и агрессивным настроением (от рока).

А знаете ли Вы, что...
Как выбрали длительность звучания компакт-диска?
«Вместимость компакт-диска была выбрана японскими разработчиками так, чтобы на нём полностью поместилась девятая симфония Бетховена — любимое произведение вице-президента Сони. Хотя итоговая длительность диска в 74 минуты, возникшая в результате разных технических согласований, была всё же на полминуты меньше длительности симфонии.»
 
Опции темы

  #1
Старый 26.09.2019, 15:15
sergych
Координатор
Досье
 
Аватар для sergych
Релиз Bay City Rollers - Greatest Hits


1992 - Bay City Rollers - Greatest Hits




Исполнитель/Artist: Bay City Rollers
Альбом/Album: Greatest Hits
Год/Year: 1992
Жанр/Genre: pop rock, glam rock, Pop
Страна/Country: Великобритания
Рекорд-лейбл/Record label: Tring
Номер в каталоге/Catalogue #: JHD025 / 5 020214 602529
Формат/Format: Free Lossless Audio Codec (*.flac)
Качество/Quality: Lossless
Тип рипа/RIP Type: image+.cue
Продолжительность/Length: 00:34:24
Источник/Source: Собственный рип
Размер/Size: 223.8 MB

Сканы в комплекте

Треклист

01. Keep On Dancing [0:02:23.00]
02. Remember [0:02:37.10]
03. Shang-A-Lang [0:03:38.30]
04. Summer Love Sensation [0:03:44.42]
05. Bye Bye Baby [0:02:43.03]
06. Give a Little Love [0:03:20.00]
07. Money Honey [0:02:52.12]
08. Love Me Like I Love You [0:03:11.10]
09. I Only Want to Be With You [0:03:23.25]
10. You Made Me Believe in Magic [0:02:40.15]
11. Rock 'n' Roll Love Letter [0:03:51.38]
[свернуть]

Превью на YouTube

[свернуть]

EAC лог

Exact Audio Copy V1.3 from 2. September 2016

EAC extraction logfile from 24. September 2019, 21:27

Bay City Rollers / Greatest Hits

Used drive : PIONEER DVD-RW DVR-220L Adapter: 1 ID: 0

Read mode : Secure
Utilize accurate stream : Yes
Defeat audio cache : Yes
Make use of C2 pointers : No

Read offset correction : 6
Overread into Lead-In and Lead-Out : No
Fill up missing offset samples with silence : Yes
Delete leading and trailing silent blocks : No
Null samples used in CRC calculations : Yes
Used interface : Installed external ASPI interface

Used output format : User Defined Encoder
Selected bitrate : 1024 kBit/s
Quality : High
Add ID3 tag : No
Command line compressor : C:\Program Files (x86)\Exact Audio Copy\Flac\flac.exe
Additional command line options : -6 -V -T "ARTIST=%artist%" -T "TITLE=%title%" -T "ALBUM=%albumtitle%" -T "DATE=%year%" -T "TRACKNUMBER=%tracknr%" -T "GENRE=%genre%" -T "COMMENT=%comment%" -T "BAND=%albuminterpret%" -T "ALBUMARTIST=%albuminterpret%" -T "COMPOSER=%composer%" %haslyrics%--tag-from-file=LYRICS="%lyricsfile%"%haslyrics% -T "DISCNUMBER=%cdnumber%" -T "TOTALDISCS=%totalcds%" -T "TOTALTRACKS=%numtracks%" %hascover%--picture="%coverfile%"%hascover% %source% -o %dest%


TOC of the extracted CD

Track | Start | Length | Start sector | End sector
---------------------------------------------------------
1 | 0:00.00 | 2:23.00 | 0 | 10724
2 | 2:23.00 | 2:37.10 | 10725 | 22509
3 | 5:00.10 | 3:38.30 | 22510 | 38889
4 | 8:38.40 | 3:44.42 | 38890 | 55731
5 | 12:23.07 | 2:43.03 | 55732 | 67959
6 | 15:06.10 | 3:20.00 | 67960 | 82959
7 | 18:26.10 | 2:52.12 | 82960 | 95871
8 | 21:18.22 | 3:11.10 | 95872 | 110206
9 | 24:29.32 | 3:23.25 | 110207 | 125456
10 | 27:52.57 | 2:40.15 | 125457 | 137471
11 | 30:32.72 | 3:51.38 | 137472 | 154834


Range status and errors

Selected range

Filename C:\mm\Bay City Rollers\Bay City Rollers - Greatest Hits.wav

Peak level 97.3 %
Extraction speed 2.2 X
Range quality 99.9 %
Test CRC F7CAB85A
Copy CRC F7CAB85A
Copy OK

No errors occurred


AccurateRip summary

Track 1 accurately ripped (confidence 2) [91DBC03D] (AR v1)
Track 2 accurately ripped (confidence 2) [4AA74264] (AR v1)
Track 3 accurately ripped (confidence 2) [EC4FEB44] (AR v1)
Track 4 accurately ripped (confidence 2) [8DAFBDC6] (AR v1)
Track 5 accurately ripped (confidence 2) [D41E2450] (AR v1)
Track 6 accurately ripped (confidence 2) [82DB1757] (AR v1)
Track 7 accurately ripped (confidence 2) [591BC2AE] (AR v1)
Track 8 accurately ripped (confidence 2) [E1722D0B] (AR v1)
Track 9 accurately ripped (confidence 2) [E059E4A6] (AR v1)
Track 10 accurately ripped (confidence 2) [42B524B9] (AR v1)
Track 11 accurately ripped (confidence 2) [D026503A] (AR v1)

All tracks accurately ripped

End of status report
[свернуть]

Файл CUE

REM GENRE Rock
REM DATE 2001
REM DISCID 7D08100B
REM COMMENT "ExactAudioCopy v1.3"
PERFORMER "Bay City Rollers"
TITLE "Greatest Hits"
REM COMPOSER ""
FILE "Bay City Rollers - Greatest Hits.flac" WAVE
TRACK 01 AUDIO
TITLE "Keep On Dancing"
PERFORMER "Bay City Rollers"
REM COMPOSER ""
INDEX 01 00:00:00
TRACK 02 AUDIO
TITLE "Remember"
PERFORMER "Bay City Rollers"
REM COMPOSER ""
INDEX 00 02:20:65
INDEX 01 02:23:00
TRACK 03 AUDIO
TITLE "Shang-A-Lang"
PERFORMER "Bay City Rollers"
REM COMPOSER ""
INDEX 00 04:58:00
INDEX 01 05:00:10
TRACK 04 AUDIO
TITLE "Summer Love Sensation"
PERFORMER "Bay City Rollers"
REM COMPOSER ""
INDEX 00 08:36:35
INDEX 01 08:38:40
TRACK 05 AUDIO
TITLE "Bye Bye Baby"
PERFORMER "Bay City Rollers"
REM COMPOSER ""
INDEX 00 12:20:50
INDEX 01 12:23:07
TRACK 06 AUDIO
TITLE "Give a Little Love"
PERFORMER "Bay City Rollers"
REM COMPOSER ""
INDEX 00 15:04:07
INDEX 01 15:06:10
TRACK 07 AUDIO
TITLE "Money Honey"
PERFORMER "Bay City Rollers"
REM COMPOSER ""
INDEX 01 18:26:10
TRACK 08 AUDIO
TITLE "Love Me Like I Love You"
PERFORMER "Bay City Rollers"
REM COMPOSER ""
INDEX 00 21:16:50
INDEX 01 21:18:22
TRACK 09 AUDIO
TITLE "I Only Want to Be With You"
PERFORMER "Bay City Rollers"
REM COMPOSER ""
INDEX 01 24:29:32
TRACK 10 AUDIO
TITLE "You Made Me Believe in Magic"
PERFORMER "Bay City Rollers"
REM COMPOSER ""
INDEX 01 27:52:57
TRACK 11 AUDIO
TITLE "Rock 'n' Roll Love Letter"
PERFORMER "Bay City Rollers"
REM COMPOSER ""
INDEX 01 30:32:72
[свернуть]

Лог проверки качества

AUDIOCHECKER v2.0 beta (build 457) - by Dester - [Ссылки могут видеть только зарегистрированные и активированные пользователи.]
[Only registered and activated users can see links.]
~~~~~~~~~~~~~~~~~~~~~~~~~~~~~~~~~~
-=== НЕ РЕДАКТИРУЙТЕ ЭТОТ ФАЙЛ! ===-

Путь: ...\1992 - Greatest Hits [JHD025_5 020214 602529]

1 -=- Bay City Rollers - Greatest Hits.flac -=- MPEG (95%)

240610596

========
ANALYZER: auCDtect: CD records authenticity detector, version 0.8.2
Copyright (c) 2004 Oleg Berngardt. All rights reserved.
Copyright (c) 2004 Alexander Djourik. All rights reserved.


FILE: Bay City Rollers - Greatest Hits.flac
Size: 225442672 Hash: 2F098708B283A4D600CE98B479757CE1 Accuracy: -m8
Conclusion: CDDA 100%
Signature: 6B004FD6FDA58B313E13F75FB9F9B9F908A4B84B
[свернуть]

Спектр частот

[свернуть]

Скачать Bay City Rollers - Greatest Hits

[Ссылки могут видеть только зарегистрированные и активированные пользователи.]
[Only registered and activated users can see links.]

password: sergych
[свернуть]

Контрольная сумма (хеш-сумма) архива

MD5: 6a76a15f4aae841336609caa0e79d42d
[свернуть]
My opinion of release: 8/10

Release info RInfo

Когда-то в юности была у меня их пластинка Wouldn't You Like It?, но кто-то из друзей её "заслушал" и оставил лишь воспоминания. По этой причине и приобретался данный СД, как дань былым годам
Забавно, но впервые вижу как "проверяльщики" разошлись во мнении о данном рипе
__________________
TAIFUN.Wings of Soul

Вверх
2 пользователя(ей) сказали cпасибо:
swint68 (27.09.2019), TAIFUN (09.10.2019)
Похожие темы
Тема Автор Раздел Ответов Последнее сообщение
Сборник Tom Waits - Greatest Hits sergych Experimental Rock 0 19.11.2011 20:00
VA OE3 Greatest Hits Vol 50 PUPOKIN Dance 0 06.08.2010 08:58
Релиз A1 - Greatest Hits PUPOKIN Зарубежная Поп-Музыка 0 10.02.2009 17:10
Donkey Rollers - The Last City On Earth DarkDan Techno 0 19.05.2008 18:02
Nas - Greatest Hits Alex1990 Зарубежный 0 05.05.2008 06:31


Метки
1992 , bay city rollers , glam rock , greatest hits , pop , pop rock

Опции темы

Ваши права в разделе
Вы не можете создавать новые темы
Вы не можете отвечать в темах
Вы не можете прикреплять вложения
Вы не можете редактировать свои сообщения

Быстрый переход




Текущее время: 07:41. Часовой пояс GMT +3.
Powered by vBulletin® Version 3.8.10
Copyright ©2000 - 2019, vBulletin Solutions, Inc. Перевод: zCarot
© 2008 - 2019 Taifun With Song
Яндекс.Метрика