TAIFUN With Song - качественная и редкая музыка
Навигация
Jazz и Blues Гибкая ритмика, импровизационное начало, гармонии и мелодии - все это Jazz. Blues - жизнеутверждающая музыка, рожденная из душевной боли

А знаете ли Вы, что...
Почему обложку музыкального сборника
«В 2005 году Sony BMG выпустила музыкальный сборник ‘Electric 80s’. В оформлении обложки диска был использован большой штрих-код. Некоторые супермаркеты потерпели убытки после того, как их продавцы считывали сканерами именно этот штрих-код вместо обычного, располагающегося на обратной стороне диска. Сканеры распознавали по коду другой товар, который стоил дешевле. Во второй партии дисков обложка была изменена.»
 
Опции темы

  #1
Старый 22.09.2019, 13:55
sergych
Координатор
Досье
 
Аватар для sergych
Релиз Tony Bennett - Viva Duets


2012 - Tony Bennett - Viva Duets {Deluxe Edition}




Исполнитель/Artist: Tony Bennett
Альбом/Album: Viva Duets {Deluxe Edition}
Год/Year: 2012
Жанр/Genre: Vocal jazz, Easy Listening
Страна/Country: Австралия
Рекорд-лейбл/Record label: RPM Records / Columbia
Номер в каталоге/Catalogue #: 88765402412
Формат/Format: Free Lossless Audio Codec (*.flac)
Качество/Quality: Lossless
Тип рипа/RIP Type: image+.cue
Продолжительность/Length: 00:49:27
Источник/Source: Собственный рип
Размер/Size: 352.6 MB

Сканы в комплекте

Треклист

01. Tony Bennett & Chayanne / The Best Is Yet To Come [0:03:39.42]
02. Tony Bennett & Thalia / The Way You Look Tonight [0:04:05.00]
03. Tony Bennett & Christina Aguilera / Steppin' Out With My Baby [0:02:03.66]
04. Tony Bennett & Marc Anthony / For Once In My Life [0:03:09.03]
05. Tony Bennett & Dani Martin / Are You Havin' Any Fun? [0:02:44.43]
06. Tony Bennett & Maria Gadu / Blue Velvet [0:04:38.01]
07. Tony Bennett & Franco de Vita / The Good Life [0:03:22.22]
08. Tony Bennett & Ricardo Arjona / I Wanna Be Around [0:03:02.63]
09. Tony Bennett & Gloria Estefan / Who Can I Turn To (When Nobody Needs Me) [0:03:52.54]
10. Tony Bennett & Miguel Bosé / Don't Get Around Much Anymore [0:02:41.15]
11. Tony Bennett & Ana Carolina / The Very Thought Of You [0:04:03.66]
12. Tony Bennett & Juan Luis Guerra / Just In Time [0:02:19.38]
13. Tony Bennett & Vicentico / Cold, Cold Heart [0:03:15.73]
14. Tony Bennett & Romeo Santos / Rags To Riches [0:02:41.01]
15. Tony Bennett & Vicente Fernández / Return To Me (Regresa A Mi) [0:03:47.41]
[свернуть]

Превью на YouTube


EAC лог

Exact Audio Copy V1.3 from 2. September 2016

EAC extraction logfile from 21. September 2019, 12:21

Tony Bennett / Viva Duets

Used drive : PIONEER DVD-RW DVR-220L Adapter: 1 ID: 0

Read mode : Secure
Utilize accurate stream : Yes
Defeat audio cache : Yes
Make use of C2 pointers : No

Read offset correction : 6
Overread into Lead-In and Lead-Out : No
Fill up missing offset samples with silence : Yes
Delete leading and trailing silent blocks : No
Null samples used in CRC calculations : Yes
Used interface : Installed external ASPI interface

Used output format : User Defined Encoder
Selected bitrate : 1024 kBit/s
Quality : High
Add ID3 tag : No
Command line compressor : C:\Program Files (x86)\Exact Audio Copy\Flac\flac.exe
Additional command line options : -6 -V -T "ARTIST=%artist%" -T "TITLE=%title%" -T "ALBUM=%albumtitle%" -T "DATE=%year%" -T "TRACKNUMBER=%tracknr%" -T "GENRE=%genre%" -T "COMMENT=%comment%" -T "BAND=%albuminterpret%" -T "ALBUMARTIST=%albuminterpret%" -T "COMPOSER=%composer%" %haslyrics%--tag-from-file=LYRICS="%lyricsfile%"%haslyrics% -T "DISCNUMBER=%cdnumber%" -T "TOTALDISCS=%totalcds%" -T "TOTALTRACKS=%numtracks%" %hascover%--picture="%coverfile%"%hascover% %source% -o %dest%


TOC of the extracted CD

Track | Start | Length | Start sector | End sector
---------------------------------------------------------
1 | 0:00.00 | 3:39.42 | 0 | 16466
2 | 3:39.42 | 4:05.00 | 16467 | 34841
3 | 7:44.42 | 2:03.66 | 34842 | 44132
4 | 9:48.33 | 3:09.03 | 44133 | 58310
5 | 12:57.36 | 2:44.43 | 58311 | 70653
6 | 15:42.04 | 4:38.01 | 70654 | 91504
7 | 20:20.05 | 3:22.22 | 91505 | 106676
8 | 23:42.27 | 3:02.63 | 106677 | 120389
9 | 26:45.15 | 3:52.54 | 120390 | 137843
10 | 30:37.69 | 2:41.15 | 137844 | 149933
11 | 33:19.09 | 4:03.66 | 149934 | 168224
12 | 37:23.00 | 2:19.38 | 168225 | 178687
13 | 39:42.38 | 3:15.73 | 178688 | 193385
14 | 42:58.36 | 2:41.01 | 193386 | 205461
15 | 45:39.37 | 3:47.41 | 205462 | 222527


Range status and errors

Selected range

Filename C:\mm\Tony Bennett\2012 - Viva Duets {Deluxe Edition} [88765402412]\Tony Bennett - Viva Duets.wav

Peak level 100.0 %
Extraction speed 4.3 X
Range quality 100.0 %
Test CRC D7422B92
Copy CRC D7422B92
Copy OK

No errors occurred


AccurateRip summary

Track 1 accurately ripped (confidence 3) [F9D996A6] (AR v2)
Track 2 accurately ripped (confidence 3) [1AD092DE] (AR v2)
Track 3 accurately ripped (confidence 3) [A2095FF2] (AR v2)
Track 4 accurately ripped (confidence 3) [D7425739] (AR v2)
Track 5 accurately ripped (confidence 3) [7C3CFC2D] (AR v2)
Track 6 accurately ripped (confidence 3) [21A9B41B] (AR v2)
Track 7 accurately ripped (confidence 3) [F653F426] (AR v2)
Track 8 accurately ripped (confidence 3) [C0BEE720] (AR v2)
Track 9 accurately ripped (confidence 3) [16E3E3A9] (AR v2)
Track 10 accurately ripped (confidence 3) [E27347DD] (AR v2)
Track 11 accurately ripped (confidence 3) [6943D991] (AR v2)
Track 12 accurately ripped (confidence 3) [A4BFD8D3] (AR v2)
Track 13 accurately ripped (confidence 3) [721595EF] (AR v2)
Track 14 accurately ripped (confidence 3) [D508B126] (AR v2)
Track 15 accurately ripped (confidence 3) [975BF3D9] (AR v2)

All tracks accurately ripped

End of status report
[свернуть]

Файл CUE

REM GENRE Jazz
REM DATE 2012
REM DISCID C00B970F
REM COMMENT "ExactAudioCopy v1.3"
PERFORMER "Tony Bennett"
TITLE "Viva Duets"
REM COMPOSER ""
FILE "Tony Bennett - Viva Duets.flac" WAVE
TRACK 01 AUDIO
TITLE "The Best Is Yet To Come"
PERFORMER "Tony Bennett & Chayanne"
REM COMPOSER ""
INDEX 01 00:00:00
TRACK 02 AUDIO
TITLE "The Way You Look Tonight"
PERFORMER "Tony Bennett & Thalia"
REM COMPOSER ""
INDEX 00 03:38:01
INDEX 01 03:39:42
TRACK 03 AUDIO
TITLE "Steppin' Out With My Baby"
PERFORMER "Tony Bennett & Christina Aguilera"
REM COMPOSER ""
INDEX 00 07:42:19
INDEX 01 07:44:42
TRACK 04 AUDIO
TITLE "For Once In My Life"
PERFORMER "Tony Bennett & Marc Anthony"
REM COMPOSER ""
INDEX 00 09:46:59
INDEX 01 09:48:33
TRACK 05 AUDIO
TITLE "Are You Havin' Any Fun?"
PERFORMER "Tony Bennett & Dani Martin"
REM COMPOSER ""
INDEX 00 12:54:72
INDEX 01 12:57:36
TRACK 06 AUDIO
TITLE "Blue Velvet"
PERFORMER "Tony Bennett & Maria Gadu"
REM COMPOSER ""
INDEX 00 15:40:36
INDEX 01 15:42:04
TRACK 07 AUDIO
TITLE "The Good Life"
PERFORMER "Tony Bennett & Franco de Vita"
REM COMPOSER ""
INDEX 00 20:18:08
INDEX 01 20:20:05
TRACK 08 AUDIO
TITLE "I Wanna Be Around"
PERFORMER "Tony Bennett & Ricardo Arjona"
REM COMPOSER ""
INDEX 00 23:40:35
INDEX 01 23:42:27
TRACK 09 AUDIO
TITLE "Who Can I Turn To (When Nobody Needs Me)"
PERFORMER "Tony Bennett & Gloria Estefan"
REM COMPOSER ""
INDEX 00 26:43:25
INDEX 01 26:45:15
TRACK 10 AUDIO
TITLE "Don't Get Around Much Anymore"
PERFORMER "Tony Bennett & Miguel Bose"
REM COMPOSER ""
INDEX 00 30:37:01
INDEX 01 30:37:69
TRACK 11 AUDIO
TITLE "The Very Thought Of You"
PERFORMER "Tony Bennett & Ana Carolina"
REM COMPOSER ""
INDEX 00 33:16:25
INDEX 01 33:19:09
TRACK 12 AUDIO
TITLE "Just In Time"
PERFORMER "Tony Bennett & Juan Luis Guerra"
REM COMPOSER ""
INDEX 00 37:20:16
INDEX 01 37:23:00
TRACK 13 AUDIO
TITLE "Cold, Cold Heart"
PERFORMER "Tony Bennett & Vicentico"
REM COMPOSER ""
INDEX 00 39:39:72
INDEX 01 39:42:38
TRACK 14 AUDIO
TITLE "Rags To Riches"
PERFORMER "Tony Bennett & Romeo Santos"
REM COMPOSER ""
INDEX 01 42:58:36
TRACK 15 AUDIO
TITLE "Return To Me (Regresa A Mi)"
PERFORMER "Tony Bennett & Vicente Fernandez"
REM COMPOSER ""
INDEX 00 45:37:54
INDEX 01 45:39:37
[свернуть]

Лог проверки качества

AUDIOCHECKER v2.0 beta (build 457) - by Dester - [Ссылки могут видеть только зарегистрированные и активированные пользователи.]
[Only registered and activated users can see links.]
~~~~~~~~~~~~~~~~~~~~~~~~~~~~~~~~~~
-=== НЕ РЕДАКТИРУЙТЕ ЭТОТ ФАЙЛ! ===-

Путь: ...\2012 - Viva Duets {Deluxe Edition} [88765402412]

1 -=- Tony Bennett - Viva Duets.flac -=- CDDA (100%)

96305252
[свернуть]

Скачать Tony Bennett - Viva Duets {Deluxe Edition}

[Ссылки могут видеть только зарегистрированные и активированные пользователи.]
[Only registered and activated users can see links.]

password: sergych

Контрольная сумма (хеш-сумма) архива MD5: edc9601617ee94b3b36b9385a6cd13e2

[Ссылки могут видеть только зарегистрированные и активированные пользователи.]
[Only registered and activated users can see links.]

Контрольная сумма (хеш-сумма) DVD *.iso MD5: 0952497310312c219d12f05518857286

[Ссылки могут видеть только зарегистрированные и активированные пользователи.]
[Only registered and activated users can see links.]

Контрольная сумма (хеш-сумма) DVD *.mp4 MD5: 5a875733da108605301d596c7c42e97f
[свернуть]
My opinion of release: 10/10

Release info RInfo

люксовый 15-ти трековый вариант издания, дополненный ДВД с фрагментами студийной записи и интервью с исполнителями.

auCDtectTaskManager почему-то не смог осилить этот рип
__________________
TAIFUN.Wings of Soul

Вверх
Пользователь сказал cпасибо:
swint68 (24.09.2019)
Похожие темы
Тема Автор Раздел Ответов Последнее сообщение
Сборник Tony Bennett – The Classics [Deluxe Edition] PUPOKIN Jazz и Blues 0 29.01.2014 08:03
Альбом Tony Bennett - Duets 2 sergych Jazz и Blues 0 03.02.2013 19:01
Альбом Sylvia Bennett - Smile PUPOKIN Jazz и Blues 0 28.07.2011 09:27
Альбом Dave Bennett - Celebrates 100 Years of Benny Goodman PUPOKIN Jazz и Blues 1 21.06.2010 08:16
Luciano Pavarotti - The Duets Tolich Зарубежная Поп-Музыка 0 21.10.2008 15:33


Метки
2012 , easy listening , tony bennett , viva duets , vocal jazz

Опции темы

Ваши права в разделе
Вы не можете создавать новые темы
Вы не можете отвечать в темах
Вы не можете прикреплять вложения
Вы не можете редактировать свои сообщения

Быстрый переход




Текущее время: 07:15. Часовой пояс GMT +3.
Powered by vBulletin® Version 3.8.10
Copyright ©2000 - 2019, vBulletin Solutions, Inc. Перевод: zCarot
© 2008 - 2019 Taifun With Song
Яндекс.Метрика