TAIFUN With Song - качественная и редкая музыка
Навигация
Pop Rock Поп-рок — жанр музыки, объединяющий элементы поп-музыки и рок-музыки. Песни характеризуются простой структурой, запоминающимися мелодиями, повторением музыкальных фраз (от попа), использованием в качестве основных инструментов электрогитар и ударных и агрессивным настроением (от рока).

А знаете ли Вы, что...
Какой наркотик, по распространённому мнению, оказал прямое влияние на выбор названия одной из песен Beatles?
«Когда Beatles записали песню "Lucy in the Sky with Diamonds", Джон Леннон объяснил происхождение названия песни тем, что так окрестил свой рисунок его сын Джулиан. Однако многие усмотрели в этом названии намёк на наркотик LSD, ведь именно такая аббревиатура складывалась из его первых букв, а BBC и вовсе запретило песню к ротации. Позже Пол Маккартни рассказал, что влияние LSD на эту песню довольно очевидно.»
 
Опции темы

  #1
Старый 19.09.2019, 19:44
sergych
Координатор
Досье
 
Аватар для sergych
Релиз Paul McCartney - Off The Ground


1993 - Paul McCartney - Off The Ground




Исполнитель/Artist: Paul McCartney
Альбом/Album: Off The Ground
Год/Year: 1993
Жанр/Genre: pop, pop rock
Страна/Country: Япония
Рекорд-лейбл/Record label: Toshiba EMI Ltd
Номер в каталоге/Catalogue #: TOCP-7580
Формат/Format: Free Lossless Audio Codec (*.flac)
Качество/Quality: Lossless
Тип рипа/RIP Type: image+.cue
Продолжительность/Length: 00:50:25
Источник/Source: Собственный рип
Размер/Size: 362.7 MB

Сканы в комплекте

Треклист

01. Off The Ground [0:03:41.17]
02. Looking For Changes [0:02:48.65]
03. Hope Of Deliverance [0:03:21.73]
04. Mistress And Maid [0:03:00.67]
05. I Owe It All To You [0:04:51.08]
06. Biker Like An Icon [0:03:26.02]
07. Peace In The Neighbourhood [0:05:06.25]
08. Golden Earth Girl [0:03:44.53]
09. The Lovers That Never Were [0:03:42.60]
10. Get Out Of My Way [0:03:32.27]
11. Winedark Open Sea [0:05:26.68]
12. C'mon People [0:07:42.00]
[свернуть]

Превью на YouTube

[свернуть]

Исполнители/Performers

Paul McCartney — vocals, bass guitar, piano, mellotron, celesta, Wurlitzer electric piano, electric guitars, acoustic guitars, spanish guitar, ocarina, percussion, sitar, drums
Linda McCartney — vocals, autoharp, celesta, harmonium, minimoog, keyboards, percussion, whistle
Hamish Stuart — vocals, electric guitar, acoustic guitar, 12 string guitar, bass guitar, percussion, piano
Robbie McIntosh — electric guitars, acoustic guitars, spanish guitar, slide guitar, mandolin, backing vocals
Paul "Wix" Wickens — keyboards, piano, hammond organ, clavinet, synthesizer, accordion, LinnDrum, drum programming, percussion, backing vocals
Blair Cunningham — drums, congas, percussion, backing vocals
[свернуть]

EAC лог

Exact Audio Copy V1.3 from 2. September 2016

EAC extraction logfile from 1. September 2019, 13:16

Paul McCartney / Off The Ground

Used drive : PIONEER DVD-RW DVR-220L Adapter: 1 ID: 0

Read mode : Secure
Utilize accurate stream : Yes
Defeat audio cache : Yes
Make use of C2 pointers : No

Read offset correction : 6
Overread into Lead-In and Lead-Out : No
Fill up missing offset samples with silence : Yes
Delete leading and trailing silent blocks : No
Null samples used in CRC calculations : Yes
Used interface : Installed external ASPI interface

Used output format : User Defined Encoder
Selected bitrate : 1024 kBit/s
Quality : High
Add ID3 tag : No
Command line compressor : C:\Program Files (x86)\Exact Audio Copy\Flac\flac.exe
Additional command line options : -6 -V -T "ARTIST=%artist%" -T "TITLE=%title%" -T "ALBUM=%albumtitle%" -T "DATE=%year%" -T "TRACKNUMBER=%tracknr%" -T "GENRE=%genre%" -T "COMMENT=%comment%" -T "BAND=%albuminterpret%" -T "ALBUMARTIST=%albuminterpret%" -T "COMPOSER=%composer%" %haslyrics%--tag-from-file=LYRICS="%lyricsfile%"%haslyrics% -T "DISCNUMBER=%cdnumber%" -T "TOTALDISCS=%totalcds%" -T "TOTALTRACKS=%numtracks%" %hascover%--picture="%coverfile%"%hascover% %source% -o %dest%


TOC of the extracted CD

Track | Start | Length | Start sector | End sector
---------------------------------------------------------
1 | 0:00.00 | 3:41.17 | 0 | 16591
2 | 3:41.17 | 2:48.65 | 16592 | 29256
3 | 6:30.07 | 3:21.73 | 29257 | 44404
4 | 9:52.05 | 3:00.67 | 44405 | 57971
5 | 12:52.72 | 4:51.08 | 57972 | 79804
6 | 17:44.05 | 3:26.02 | 79805 | 95256
7 | 21:10.07 | 5:06.25 | 95257 | 118231
8 | 26:16.32 | 3:44.53 | 118232 | 135084
9 | 30:01.10 | 3:42.60 | 135085 | 151794
10 | 33:43.70 | 3:32.27 | 151795 | 167721
11 | 37:16.22 | 5:26.68 | 167722 | 192239
12 | 42:43.15 | 7:42.00 | 192240 | 226889


Range status and errors

Selected range

Filename C:\mm\Paul McCartney\1993 - Off The Ground [TOCP-7580]\Paul McCartney - Off The Ground.wav

Peak level 100.0 %
Extraction speed 7.0 X
Range quality 99.9 %
Test CRC 1393C4D1
Copy CRC 1393C4D1
Copy OK

No errors occurred


AccurateRip summary

Track 1 accurately ripped (confidence 21) [DBD70C37] (AR v2)
Track 2 accurately ripped (confidence 21) [7BE33CD7] (AR v2)
Track 3 accurately ripped (confidence 21) [E03258D4] (AR v2)
Track 4 accurately ripped (confidence 21) [06580341] (AR v2)
Track 5 accurately ripped (confidence 21) [74440DB0] (AR v2)
Track 6 accurately ripped (confidence 21) [F99F5C22] (AR v2)
Track 7 accurately ripped (confidence 21) [57969341] (AR v2)
Track 8 accurately ripped (confidence 21) [19F1121B] (AR v2)
Track 9 accurately ripped (confidence 21) [ECE05A42] (AR v2)
Track 10 accurately ripped (confidence 21) [220412AE] (AR v2)
Track 11 accurately ripped (confidence 21) [385C9D51] (AR v2)
Track 12 accurately ripped (confidence 20) [4BD5A127] (AR v2)

All tracks accurately ripped

End of status report
[свернуть]

Файл CUE

REM GENRE Rock
REM DATE 1993
REM DISCID 9F0BD10C
REM COMMENT "ExactAudioCopy v1.3"
PERFORMER "Paul McCartney"
TITLE "Off The Ground"
REM COMPOSER ""
FILE "Paul McCartney - Off The Ground.flac" WAVE
TRACK 01 AUDIO
TITLE "Off The Ground"
PERFORMER "Paul McCartney"
REM COMPOSER ""
INDEX 01 00:00:00
TRACK 02 AUDIO
TITLE "Looking For Changes"
PERFORMER "Paul McCartney"
REM COMPOSER ""
INDEX 00 03:40:32
INDEX 01 03:41:17
TRACK 03 AUDIO
TITLE "Hope Of Deliverance"
PERFORMER "Paul McCartney"
REM COMPOSER ""
INDEX 00 06:27:25
INDEX 01 06:30:07
TRACK 04 AUDIO
TITLE "Mistress And Maid"
PERFORMER "Paul McCartney"
REM COMPOSER ""
INDEX 01 09:52:05
TRACK 05 AUDIO
TITLE "I Owe It All To You"
PERFORMER "Paul McCartney"
REM COMPOSER ""
INDEX 00 12:50:57
INDEX 01 12:52:72
TRACK 06 AUDIO
TITLE "Biker Like An Icon"
PERFORMER "Paul McCartney"
REM COMPOSER ""
INDEX 01 17:44:05
TRACK 07 AUDIO
TITLE "Peace In The Neighbourhood"
PERFORMER "Paul McCartney"
REM COMPOSER ""
INDEX 01 21:10:07
TRACK 08 AUDIO
TITLE "Golden Earth Girl"
PERFORMER "Paul McCartney"
REM COMPOSER ""
INDEX 01 26:16:32
TRACK 09 AUDIO
TITLE "The Lovers That Never Were"
PERFORMER "Paul McCartney"
REM COMPOSER ""
INDEX 01 30:01:10
TRACK 10 AUDIO
TITLE "Get Out Of My Way"
PERFORMER "Paul McCartney"
REM COMPOSER ""
INDEX 01 33:43:70
TRACK 11 AUDIO
TITLE "Winedark Open Sea"
PERFORMER "Paul McCartney"
REM COMPOSER ""
INDEX 00 37:15:40
INDEX 01 37:16:22
TRACK 12 AUDIO
TITLE "C'mon People"
PERFORMER "Paul McCartney"
REM COMPOSER ""
INDEX 01 42:43:15
INDEX 02 48:35:62
[свернуть]

Лог проверки качества

AUDIOCHECKER v2.0 beta (build 457) - by Dester - [Ссылки могут видеть только зарегистрированные и активированные пользователи.]
[Only registered and activated users can see links.]
~~~~~~~~~~~~~~~~~~~~~~~~~~~~~~~~~~
-=== НЕ РЕДАКТИРУЙТЕ ЭТОТ ФАЙЛ! ===-

Путь: ...\1993 - Off The Ground [TOCP-7580]

1 -=- Paul McCartney - Off The Ground.flac -=- CDDA (100%)

81894452
[свернуть]

Спектр частот

[свернуть]

Скачать Paul McCartney - Off The Ground

[Ссылки могут видеть только зарегистрированные и активированные пользователи.]
[Only registered and activated users can see links.]

password: sergych
[свернуть]

Контрольная сумма (хеш-сумма) архива

MD5: e25a0f7ffde9b22f14dbaa921302e5c8
[свернуть]
My opinion of release: 10/10
__________________
TAIFUN.Wings of Soul

Вверх
2 пользователя(ей) сказали cпасибо:
Guilli (19.09.2019), swint68 (19.09.2019)
Похожие темы
Тема Автор Раздел Ответов Последнее сообщение
Сборник Paul McCartney - Pure McCartney sergych Pop Rock 0 09.04.2017 14:57
Альбом Paul McCartney - McCartney sergych Pop Rock 0 27.10.2013 14:08
Альбом Paul McCartney & Elvis Costello - The McCartney/Mac Manus Collaboration sergych Pop Rock 0 10.08.2008 05:37
Live Paul McCartney - Paul Is Live sergych Pop Rock 0 08.08.2008 23:27
Альбом Paul McCartney - McCartney II sergych Pop Rock 0 04.08.2008 19:55


Метки
1993 , off the ground , paul mccartney , pop , pop rock

Опции темы

Ваши права в разделе
Вы не можете создавать новые темы
Вы не можете отвечать в темах
Вы не можете прикреплять вложения
Вы не можете редактировать свои сообщения

Быстрый переход




Текущее время: 06:56. Часовой пояс GMT +3.
Powered by vBulletin® Version 3.8.10
Copyright ©2000 - 2019, vBulletin Solutions, Inc. Перевод: zCarot
© 2008 - 2019 Taifun With Song
Яндекс.Метрика