TAIFUN With Song - качественная и редкая музыка
Навигация
А знаете ли Вы, что...
Какой композитор писал музыку, будучи глухим?
«На момент написания своей знаменитой девятой симфонии Бетховен был абсолютно глух.»
 
Опции темы

  #1
Старый 15.09.2019, 21:18
sergych
Координатор
Досье
 
Аватар для sergych
Релиз Hot Chocolate - More Greatest Hits


2000 - Hot Chocolate - More Greatest Hits




Исполнитель/Artist: Hot Chocolate
Альбом/Album: More Greatest Hits
Год/Year: 2000
Жанр/Genre: Funk, soul, pop, disco
Страна/Country: Великобритания
Рекорд-лейбл/Record label: EMI Record
Номер в каталоге/Catalogue #: 7243 5 26349 2 7
Формат/Format: Free Lossless Audio Codec (*.flac)
Качество/Quality: Lossless
Тип рипа/RIP Type: image+.cue
Продолжительность/Length: 01:09:44
Источник/Source: Собственный рип
Размер/Size: 410.3 MB

Сканы в комплекте

Треклист

01. So You Win Again [0:04:31.62]
02. Put Your Love In Me [0:05:43.25]
03. Every 1's A Winner [0:04:02.56]
04. I'll Put You Together Again [0:03:53.64]
05. Mindless Boogie [0:04:20.12]
06. Going Through The Motions [0:04:11.01]
07. No Doubt About It [0:04:28.69]
08. Are You Getting Enough Of What Makes You Happy [0:04:14.04]
09. Love Me To Sleep [0:03:57.54]
10. You'll Never Be So Wrong [0:04:28.44]
11. Girl Crazy [0:03:23.52]
12. It Started With A Kiss [0:04:02.03]
13. Chances [0:04:03.00]
14. What Kinda Boy You're Lookin' For Girl [0:03:46.65]
15. Tears On The Telephone [0:03:11.56]
16. I Gave You My Heart [0:03:39.50]
17. You Sexy Thing - Remix [0:03:44.29]
[свернуть]

Превью на YouTube

[свернуть]

EAC лог

Exact Audio Copy V1.3 from 2. September 2016

EAC extraction logfile from 13. September 2019, 0:02

Hot Chocolate / More Greatest Hits

Used drive : PIONEER DVD-RW DVR-220L Adapter: 1 ID: 0

Read mode : Secure
Utilize accurate stream : Yes
Defeat audio cache : Yes
Make use of C2 pointers : No

Read offset correction : 6
Overread into Lead-In and Lead-Out : No
Fill up missing offset samples with silence : Yes
Delete leading and trailing silent blocks : No
Null samples used in CRC calculations : Yes
Used interface : Installed external ASPI interface

Used output format : User Defined Encoder
Selected bitrate : 1024 kBit/s
Quality : High
Add ID3 tag : No
Command line compressor : C:\Program Files (x86)\Exact Audio Copy\Flac\flac.exe
Additional command line options : -6 -V -T "ARTIST=%artist%" -T "TITLE=%title%" -T "ALBUM=%albumtitle%" -T "DATE=%year%" -T "TRACKNUMBER=%tracknr%" -T "GENRE=%genre%" -T "COMMENT=%comment%" -T "BAND=%albuminterpret%" -T "ALBUMARTIST=%albuminterpret%" -T "COMPOSER=%composer%" %haslyrics%--tag-from-file=LYRICS="%lyricsfile%"%haslyrics% -T "DISCNUMBER=%cdnumber%" -T "TOTALDISCS=%totalcds%" -T "TOTALTRACKS=%numtracks%" %hascover%--picture="%coverfile%"%hascover% %source% -o %dest%


TOC of the extracted CD

Track | Start | Length | Start sector | End sector
---------------------------------------------------------
1 | 0:00.00 | 4:31.62 | 0 | 20386
2 | 4:31.62 | 5:43.25 | 20387 | 46136
3 | 10:15.12 | 4:02.56 | 46137 | 64342
4 | 14:17.68 | 3:53.64 | 64343 | 81881
5 | 18:11.57 | 4:20.12 | 81882 | 101393
6 | 22:31.69 | 4:11.01 | 101394 | 120219
7 | 26:42.70 | 4:28.69 | 120220 | 140388
8 | 31:11.64 | 4:14.04 | 140389 | 159442
9 | 35:25.68 | 3:57.54 | 159443 | 177271
10 | 39:23.47 | 4:28.44 | 177272 | 197415
11 | 43:52.16 | 3:23.52 | 197416 | 212692
12 | 47:15.68 | 4:02.03 | 212693 | 230845
13 | 51:17.71 | 4:03.00 | 230846 | 249070
14 | 55:20.71 | 3:46.65 | 249071 | 266085
15 | 59:07.61 | 3:11.56 | 266086 | 280466
16 | 62:19.42 | 3:39.50 | 280467 | 296941
17 | 65:59.17 | 3:44.29 | 296942 | 313770


Range status and errors

Selected range

Filename C:\mm\Hot Chocolate\2000 - More Greatest Hits [7243 5 26349 2 7]\Hot Chocolate - More Greatest Hits.wav

Peak level 93.2 %
Extraction speed 8.3 X
Range quality 100.0 %
Test CRC B7B720A0
Copy CRC B7B720A0
Copy OK

No errors occurred


AccurateRip summary

Track 1 accurately ripped (confidence 8) [7B1F2DB1] (AR v2)
Track 2 accurately ripped (confidence 8) [5CF525AF] (AR v2)
Track 3 accurately ripped (confidence 8) [4DB9BFA4] (AR v2)
Track 4 accurately ripped (confidence 8) [E4D19BCC] (AR v2)
Track 5 accurately ripped (confidence 8) [24F35A3D] (AR v2)
Track 6 accurately ripped (confidence 8) [03AD2CC8] (AR v2)
Track 7 accurately ripped (confidence 8) [0E11A658] (AR v2)
Track 8 accurately ripped (confidence 8) [2D290D33] (AR v2)
Track 9 accurately ripped (confidence 8) [1C01CB22] (AR v2)
Track 10 accurately ripped (confidence 8) [E2E9ABCE] (AR v2)
Track 11 accurately ripped (confidence 8) [5478AA9C] (AR v2)
Track 12 accurately ripped (confidence 8) [B620450C] (AR v2)
Track 13 accurately ripped (confidence 8) [5819772C] (AR v2)
Track 14 accurately ripped (confidence 8) [52D8A5A6] (AR v2)
Track 15 accurately ripped (confidence 8) [3C3FFC3C] (AR v2)
Track 16 accurately ripped (confidence 8) [9DDD5C14] (AR v2)
Track 17 accurately ripped (confidence 8) [C24DF6EC] (AR v2)

All tracks accurately ripped

End of status report
[свернуть]

Файл CUE

REM GENRE Funky
REM DATE 2001
REM DISCID FC105711
REM COMMENT "ExactAudioCopy v1.3"
PERFORMER "Hot Chocolate"
TITLE "More Greatest Hits"
REM COMPOSER ""
FILE "Hot Chocolate - More Greatest Hits.flac" WAVE
TRACK 01 AUDIO
TITLE "So You Win Again"
PERFORMER "Hot Chocolate"
REM COMPOSER ""
INDEX 01 00:00:00
TRACK 02 AUDIO
TITLE "Put Your Love In Me"
PERFORMER "Hot Chocolate"
REM COMPOSER ""
INDEX 00 04:28:44
INDEX 01 04:31:62
TRACK 03 AUDIO
TITLE "Every 1's A Winner"
PERFORMER "Hot Chocolate"
REM COMPOSER ""
INDEX 00 10:12:38
INDEX 01 10:15:12
TRACK 04 AUDIO
TITLE "I'll Put You Together Again"
PERFORMER "Hot Chocolate"
REM COMPOSER ""
INDEX 00 14:15:33
INDEX 01 14:17:68
TRACK 05 AUDIO
TITLE "Mindless Boogie"
PERFORMER "Hot Chocolate"
REM COMPOSER ""
INDEX 00 18:08:72
INDEX 01 18:11:57
TRACK 06 AUDIO
TITLE "Going Through The Motions"
PERFORMER "Hot Chocolate"
REM COMPOSER ""
INDEX 00 22:29:45
INDEX 01 22:31:69
TRACK 07 AUDIO
TITLE "No Doubt About It"
PERFORMER "Hot Chocolate"
REM COMPOSER ""
INDEX 00 26:41:05
INDEX 01 26:42:70
TRACK 08 AUDIO
TITLE "Are You Getting Enough Of What Makes You Happy"
PERFORMER "Hot Chocolate"
REM COMPOSER ""
INDEX 00 31:08:44
INDEX 01 31:11:64
TRACK 09 AUDIO
TITLE "Love Me To Sleep"
PERFORMER "Hot Chocolate"
REM COMPOSER ""
INDEX 00 35:23:17
INDEX 01 35:25:68
TRACK 10 AUDIO
TITLE "You'll Never Be So Wrong"
PERFORMER "Hot Chocolate"
REM COMPOSER ""
INDEX 00 39:20:46
INDEX 01 39:23:47
TRACK 11 AUDIO
TITLE "Girl Crazy"
PERFORMER "Hot Chocolate"
REM COMPOSER ""
INDEX 00 43:50:26
INDEX 01 43:52:16
TRACK 12 AUDIO
TITLE "It Started With A Kiss"
PERFORMER "Hot Chocolate"
REM COMPOSER ""
INDEX 00 47:12:30
INDEX 01 47:15:68
TRACK 13 AUDIO
TITLE "Chances"
PERFORMER "Hot Chocolate"
REM COMPOSER ""
INDEX 00 51:15:61
INDEX 01 51:17:71
TRACK 14 AUDIO
TITLE "What Kinda Boy You're Lookin' For Girl"
PERFORMER "Hot Chocolate"
REM COMPOSER ""
INDEX 00 55:18:07
INDEX 01 55:20:71
TRACK 15 AUDIO
TITLE "Tears On The Telephone"
PERFORMER "Hot Chocolate"
REM COMPOSER ""
INDEX 00 59:05:67
INDEX 01 59:07:61
TRACK 16 AUDIO
TITLE "I Gave You My Heart"
PERFORMER "Hot Chocolate"
REM COMPOSER ""
INDEX 00 62:17:63
INDEX 01 62:19:42
TRACK 17 AUDIO
TITLE "You Sexy Thing - Remix"
PERFORMER "Hot Chocolate"
REM COMPOSER ""
INDEX 00 65:57:72
INDEX 01 65:59:17
[свернуть]

Лог проверки качества

AUDIOCHECKER v2.0 beta (build 457) - by Dester - [Ссылки могут видеть только зарегистрированные и активированные пользователи.]
[Only registered and activated users can see links.]
~~~~~~~~~~~~~~~~~~~~~~~~~~~~~~~~~~
-=== НЕ РЕДАКТИРУЙТЕ ЭТОТ ФАЙЛ! ===-

Путь: ...\2000 - More Greatest Hits [7243 5 26349 2 7]

1 -=- Hot Chocolate - More Greatest Hits.flac -=- CDDA (100%)

90440164
[свернуть]

Спектр частот

[свернуть]

Скачать Hot Chocolate - More Greatest Hits

[Ссылки могут видеть только зарегистрированные и активированные пользователи.]
[Only registered and activated users can see links.]

password: sergych
[свернуть]

Контрольная сумма (хеш-сумма) архива

MD5: bba1a940bb03787facd9a6df0c097ff9
[свернуть]
My opinion of release: 9/10
__________________
TAIFUN.Wings of Soul

Вверх
Пользователь сказал cпасибо:
johnsilver (21.09.2019)
Похожие темы
Тема Автор Раздел Ответов Последнее сообщение
Сборник Simply Red - Greatest Hits sergych Зарубежная Поп-Музыка 0 14.12.2014 17:46
Сборник La Bouche - Greatest Hits PUPOKIN Eurodance 0 12.08.2011 09:44
VA OE3 Greatest Hits Vol 50 PUPOKIN Dance 0 06.08.2010 08:58
Релиз A1 - Greatest Hits PUPOKIN Зарубежная Поп-Музыка 0 10.02.2009 17:10
Nas - Greatest Hits Alex1990 Зарубежный 0 05.05.2008 06:31


Метки
2000 , disco , funk , hot chocolate , more greatest hits , pop , soul

Опции темы

Ваши права в разделе
Вы не можете создавать новые темы
Вы не можете отвечать в темах
Вы не можете прикреплять вложения
Вы не можете редактировать свои сообщения

Быстрый переход




Текущее время: 06:55. Часовой пояс GMT +3.
Powered by vBulletin® Version 3.8.10
Copyright ©2000 - 2019, vBulletin Solutions, Inc. Перевод: zCarot
© 2008 - 2019 Taifun With Song
Яндекс.Метрика