TAIFUN With Song - качественная и редкая музыка
Навигация
Hard Rock То, что может восприниматься слушателем как «тяжесть» в хард-роке, достигается, в частности, за счет специфического звучания электрогитары (с такими эффектами, как например, дисторшн и овердрайв) и работы ритм-секции. «Классический» хард-рок обрёл формы в конце 1960-х — начале 1970-х годов в Великобритании. Классический хард-рок отличается от хеви-металла более мелодичным звучанием.

А знаете ли Вы, что...
Чья кровь применялась при печати комиксов?
«Участники группы KISS для раскрутки первого комикса о себе сдали кровь и смешали её с красными чернилами в издающей комикс типографии.»
 
Опции темы

  #1
Старый 02.05.2008, 10:32
sergych
Координатор
Досье
 
Аватар для sergych
Релиз AC/DC - Dirty Deeds Done Dirt Cheap

1995 (1976) - Dirty Deeds Done Dirt Cheap (Australia)



Исполнитель/Artist: AC/DC
Альбом/Album: Dirty Deeds Done Dirt Cheap (Australia)
Год/Year: 1995 (1976)
Издатель/Label: Albert Productions
Жанр/Genre: Hard rock / heavy metal / blues rock
Формат/Format: mp3 CBR
Качество/Quality: 192 kbps Stereo
Размер/Size: 57.2 MB
Продолжительность/Length: 00:42:23

Треклист

01 - Dirty Deeds Done Dirt Cheap
02 - Ain't No Fun (Waiting Round To Be A Millionaire)
03 - There's Gonna Be Some Rockin'
04 - Problem Child
05 - Squealer
06 - Big Balls
07 - R.I.P. (Rock In Peace)
08 - Ride On
09 - Jailbreak
[свернуть]
Все песни содержат текст и обложку

Скачать


[Ссылки могут видеть только зарегистрированные и активированные пользователи.]
[Only registered and activated users can see links.]

Pass: sergych
[свернуть]
__________________
TAIFUN.Wings of Soul


Последний раз редактировалось sergych, 08.04.2019 в 23:32. Причина: перезаливка
Вверх
Пользователь сказал cпасибо:
dajver (23.04.2010)
  #2
Старый 02.05.2008, 10:32
sergych
Координатор
Досье
 
Аватар для sergych
Thumbs up AC/DC - Dirty Deeds Done Dirt Cheap

1976 - Dirty Deeds Done Dirt Cheap



Исполнитель/Artist: AC/DC
Альбом/Album: Dirty Deeds Done Dirt Cheap
Год/Year: 1976
Издатель/Label: Atlantic
Жанр/Genre: Hard rock / heavy metal / blues rock
Формат/Format: mp3 CBR
Качество/Quality: 192 kbps Stereo
Размер/Size: 55.9 MB
Продолжительность/Length: 00:39:55

Треклист

01 - Dirty Deeds Done Dirt Cheap
02 - Love At First Feel
03 - Big Balls
04 - Rocker
05 - Problem Child
06 - There's Gonna Be Some Rockin'
07 - Ain't No Fun (Waiting Round To Be A Millionaire)
08 - Ride On
09 - Squealer
[свернуть]
Все песни содержат текст и обложку

Скачать


[Ссылки могут видеть только зарегистрированные и активированные пользователи.]
[Only registered and activated users can see links.]

Pass: sergych
[свернуть]
__________________
TAIFUN.Wings of Soul


Последний раз редактировалось sergych, 08.04.2019 в 23:35. Причина: перезаливка
Вверх
  #3
Старый 08.04.2019, 23:47
sergych
Координатор
Досье
 
Аватар для sergych
Релиз Re: AC/DC - Dirty Deeds Done Dirt Cheap


1976 - Ac/Dc - Dirty Deeds Done Dirt Cheap




Исполнитель/Artist: Ac/Dc
Альбом/Album: Dirty Deeds Done Dirt Cheap
Год/Year: 1976
Жанр/Genre: Hard rock, heavy metal, blues rock
Страна/Country: Соединённые Штаты
Рекорд-лейбл/Record label: Atlantic
Номер в каталоге/Catalogue #: 16033-2
Формат/Format: Free Lossless Audio Codec (*.flac)
Качество/Quality: Lossless
Тип рипа/RIP Type: image+.cue
Продолжительность/Length: 00:39:29
Источник/Source: Собственный рип
Размер/Size: 238.6 MB

Сканы в комплекте

Треклист

01. Dirty Deeds Done Dirt Cheap [0:03:50.70]
02. Love at First Feel [0:03:10.13]
03. Big Balls [0:02:37.67]
04. Rocker [0:02:50.68]
05. Problem Child [0:05:46.27]
06. There's Gonna be Some Rockin' [0:03:16.03]
07. Ain't No Fun (Waiting Round to be a Millionaire) [0:06:54.07]
08. Ride On [0:05:51.68]
09. Squealer [0:05:10.40]
[свернуть]

Превью на YouTube


Исполнители/Performers

Bon Scott – lead vocals
Angus Young – lead guitar
Malcolm Young – rhythm guitar, backing vocals
Mark Evans – bass guitar
Phil Rudd – drums
George Young – production, bass guitar on track 3
[свернуть]

EAC лог

Exact Audio Copy V1.3 from 2. September 2016

EAC extraction logfile from 28. March 2019, 12:50

AcDc / Dirty Deeds Done Dirt Cheap

Used drive : PIONEER DVD-RW DVR-220L Adapter: 1 ID: 0

Read mode : Secure
Utilize accurate stream : Yes
Defeat audio cache : Yes
Make use of C2 pointers : No

Read offset correction : 6
Overread into Lead-In and Lead-Out : No
Fill up missing offset samples with silence : Yes
Delete leading and trailing silent blocks : No
Null samples used in CRC calculations : Yes
Used interface : Installed external ASPI interface

Used output format : User Defined Encoder
Selected bitrate : 1024 kBit/s
Quality : High
Add ID3 tag : No
Command line compressor : C:\Program Files (x86)\Exact Audio Copy\Flac\flac.exe
Additional command line options : -6 -V -T "ARTIST=%artist%" -T "TITLE=%title%" -T "ALBUM=%albumtitle%" -T "DATE=%year%" -T "TRACKNUMBER=%tracknr%" -T "GENRE=%genre%" -T "COMMENT=%comment%" -T "BAND=%albuminterpret%" -T "ALBUMARTIST=%albuminterpret%" -T "COMPOSER=%composer%" %haslyrics%--tag-from-file=LYRICS="%lyricsfile%"%haslyrics% -T "DISCNUMBER=%cdnumber%" -T "TOTALDISCS=%totalcds%" -T "TOTALTRACKS=%numtracks%" %hascover%--picture="%coverfile%"%hascover% %source% -o %dest%


TOC of the extracted CD

Track | Start | Length | Start sector | End sector
---------------------------------------------------------
1 | 0:00.32 | 3:50.70 | 32 | 17351
2 | 3:51.27 | 3:10.13 | 17352 | 31614
3 | 7:01.40 | 2:37.67 | 31615 | 43456
4 | 9:39.32 | 2:50.68 | 43457 | 56274
5 | 12:30.25 | 5:46.27 | 56275 | 82251
6 | 18:16.52 | 3:16.03 | 82252 | 96954
7 | 21:32.55 | 6:54.07 | 96955 | 128011
8 | 28:26.62 | 5:51.68 | 128012 | 154404
9 | 34:18.55 | 5:10.40 | 154405 | 177694


Range status and errors

Selected range

Filename C:\mm\AcDc\1976 - Dirty Deeds Done Dirt Cheap [16033-2]\AcDc - Dirty Deeds Done Dirt Cheap.wav

Peak level 100.0 %
Extraction speed 6.6 X
Range quality 100.0 %
Test CRC 28CE5A6F
Copy CRC 28CE5A6F
Copy OK

No errors occurred


AccurateRip summary

Track 1 accurately ripped (confidence 40) [EB6ACDCC] (AR v2)
Track 2 accurately ripped (confidence 39) [85D73B79] (AR v2)
Track 3 accurately ripped (confidence 42) [64C18565] (AR v2)
Track 4 accurately ripped (confidence 41) [1A6E9915] (AR v2)
Track 5 accurately ripped (confidence 41) [2204FECC] (AR v2)
Track 6 accurately ripped (confidence 41) [425D696E] (AR v2)
Track 7 accurately ripped (confidence 40) [6BE6E785] (AR v2)
Track 8 accurately ripped (confidence 40) [2BDA4357] (AR v2)
Track 9 accurately ripped (confidence 39) [7F424DE8] (AR v2)

All tracks accurately ripped

End of status report
[свернуть]

Файл CUE

REM GENRE "Hard Rock"
REM DATE 1976
REM DISCID 69094109
REM COMMENT "ExactAudioCopy v1.3"
PERFORMER "AcDc"
TITLE "Dirty Deeds Done Dirt Cheap"
REM COMPOSER ""
FILE "AcDc - Dirty Deeds Done Dirt Cheap.flac" WAVE
TRACK 01 AUDIO
TITLE "Dirty Deeds Done Dirt Cheap"
PERFORMER "AcDc"
REM COMPOSER ""
INDEX 00 00:00:00
INDEX 01 00:00:32
TRACK 02 AUDIO
TITLE "Love at First Feel"
PERFORMER "AcDc"
REM COMPOSER ""
INDEX 00 03:49:62
INDEX 01 03:51:27
TRACK 03 AUDIO
TITLE "Big Balls"
PERFORMER "AcDc"
REM COMPOSER ""
INDEX 00 06:58:20
INDEX 01 07:01:40
TRACK 04 AUDIO
TITLE "Rocker"
PERFORMER "AcDc"
REM COMPOSER ""
INDEX 01 09:39:32
TRACK 05 AUDIO
TITLE "Problem Child"
PERFORMER "AcDc"
REM COMPOSER ""
INDEX 00 12:26:60
INDEX 01 12:30:25
TRACK 06 AUDIO
TITLE "There's Gonna be Some Rockin'"
PERFORMER "AcDc"
REM COMPOSER ""
INDEX 00 18:14:10
INDEX 01 18:16:52
TRACK 07 AUDIO
TITLE "Ain't No Fun (Waiting Round to be a Millionaire)"
PERFORMER "AcDc"
REM COMPOSER ""
INDEX 00 21:31:72
INDEX 01 21:32:55
TRACK 08 AUDIO
TITLE "Ride On"
PERFORMER "AcDc"
REM COMPOSER ""
INDEX 00 28:21:02
INDEX 01 28:26:62
TRACK 09 AUDIO
TITLE "Squealer"
PERFORMER "AcDc"
REM COMPOSER ""
INDEX 00 34:14:60
INDEX 01 34:18:55
[свернуть]

Лог проверки качества

AUDIOCHECKER v2.0 beta (build 457) - by Dester - [Ссылки могут видеть только зарегистрированные и активированные пользователи.]
[Only registered and activated users can see links.]
~~~~~~~~~~~~~~~~~~~~~~~~~~~~~~~~~~
-=== НЕ РЕДАКТИРУЙТЕ ЭТОТ ФАЙЛ! ===-

Путь: ...\1976 - Dirty Deeds Done Dirt Cheap [16033-2]

1 -=- AcDc - Dirty Deeds Done Dirt Cheap.flac -=- CDDA (100%)

121538756
[свернуть]

Спектр частот

[свернуть]

Скачать Ac/Dc - Dirty Deeds Done Dirt Cheap

[Ссылки могут видеть только зарегистрированные и активированные пользователи.]
[Only registered and activated users can see links.]

password: sergych
[свернуть]

Контрольная сумма (хеш-сумма) архива

MD5: 002a5583212aa7f6e003a089f3ff3a32
[свернуть]
__________________
TAIFUN.Wings of Soul

Вверх
Пользователь сказал cпасибо:
swint68 (10.04.2019)
Похожие темы
Тема Автор Раздел Ответов Последнее сообщение
Релиз Dirty White Boyz - Down And Dirty PUPOKIN Hard Rock 0 23.03.2017 13:13
Саундтрек DiRT 3 PUPOKIN Саундтреки 0 05.06.2011 09:43
Релиз Random Deeds - One Round Zero PUPOKIN Progressive Rock 0 26.12.2010 11:35
Релиз Small Jackets - Cheap Tequila PUPOKIN Hard Rock 0 24.10.2009 10:06
Deeds Of Flesh - Of What's To Come ReAl Death Metal 0 02.11.2008 21:51


Метки
1976 , ac/dc , blues rock , classic rock , dirty deeds done dirt cheap , hard rock , heavy metal , rock'n'roll

Опции темы

Ваши права в разделе
Вы не можете создавать новые темы
Вы не можете отвечать в темах
Вы не можете прикреплять вложения
Вы не можете редактировать свои сообщения

Быстрый переход



Текущее время: 14:54. Часовой пояс GMT +3.
Powered by vBulletin® Version 3.8.10
Copyright ©2000 - 2019, vBulletin Solutions, Inc. Перевод: zCarot
© 2008 - 2019 Taifun With Song
Яндекс.Метрика