TAIFUN With Song - качественная и редкая музыка
Навигация
Hard Rock То, что может восприниматься слушателем как «тяжесть» в хард-роке, достигается, в частности, за счет специфического звучания электрогитары (с такими эффектами, как например, дисторшн и овердрайв) и работы ритм-секции. «Классический» хард-рок обрёл формы в конце 1960-х — начале 1970-х годов в Великобритании. Классический хард-рок отличается от хеви-металла более мелодичным звучанием.

А знаете ли Вы, что...
Какой пианист играл одной левой?
«Австрийский пианист Пауль Витгенштейн потерял правую руку в Первой Мировой войне, однако возобновил концертную карьеру и достиг исключительного мастерства, играя одной левой. Виртуозное владение пианистической техникой позволило Витгенштейну успешно исполнять сочинения, сопоставимые по сложности даже для пианиста с двумя руками.»
 
Опции темы

  #1
Старый 03.08.2008, 09:57
sergych
Координатор
Досье
 
Аватар для sergych
Релиз AC/DC - Ballbreaker

1995 - Ballbreaker



Исполнитель/Artist: AC/DC
Альбом/Album: Ballbreaker
Год/Year: 1995
Жанр/Genre: Hard rock
Формат/Format: mp3 CBR
Качество/Quality: 192 kbps Stereo
Размер/Size: 71.9 MB
Продолжительность/Length: 00:50:29

Треклист

01 - Hard As A Rock
02 - Cover You In Oil
03 - The Furor
04 - Boogie Man
05 - The Honey Roll
06 - Burnin' Alive
07 - Hail Caesar
08 - Love Bomb
09 - Caught With Your Pants Down
10 - Wiskey On The Rocks
11 - Ballbreaker
[свернуть]
Все песни содержат текст и обложку

Скачать


[Ссылки могут видеть только зарегистрированные и активированные пользователи.]
[Only registered and activated users can see links.]

Pass: sergych
[свернуть]
[Ссылки могут видеть только зарегистрированные и активированные пользователи.]
[Only registered and activated users can see links.]
My opinion of release: 10/10
__________________
TAIFUN.Wings of Soul


Последний раз редактировалось sergych, 24.04.2016 в 12:42. Причина: перезаливка
Вверх
2 пользователя(ей) сказали cпасибо:
dajver (23.04.2010), TAIFUN (24.04.2016)
  #2
Старый 24.04.2016, 12:43
sergych
Координатор
Досье
 
Аватар для sergych
По умолчанию Re: AC/DC - Ballbreaker

перезалито
__________________
TAIFUN.Wings of Soul

Вверх
Пользователь сказал cпасибо:
TAIFUN (24.04.2016)
  #3
Старый 13.04.2019, 09:16
sergych
Координатор
Досье
 
Аватар для sergych
Релиз Re: AC/DC - Ballbreaker


1995 - Ac/Dc - Ballbreaker




Исполнитель/Artist: Ac/Dc
Альбом/Album: Ballbreaker
Год/Year: 1995
Жанр/Genre: Hard rock, Blues rock
Страна/Country: Соединённые Штаты
Рекорд-лейбл/Record label: EastWest Records
Номер в каталоге/Catalogue #: 61780-2
Формат/Format: Free Lossless Audio Codec (*.flac)
Качество/Quality: Lossless
Тип рипа/RIP Type: image+.cue
Продолжительность/Length: 00:49:52
Источник/Source: Собственный рип
Размер/Size: 397.4 MB

Сканы в комплекте

Треклист

01. Hard As A Rock [0:04:31.10]
02. Cover You In Oil [0:04:32.65]
03. The Furor [0:04:10.50]
04. Boogie Man [0:04:07.07]
05. The Honey Roll [0:05:34.70]
06. Burnin' Alive [0:05:05.35]
07. Hail Caesar [0:05:14.33]
08. Love Bomb [0:03:14.00]
09. Caught With Your Pants Down [0:04:14.55]
10. Whiskey On The Rocks [0:04:35.02]
11. Ballbreaker [0:04:31.30]
[свернуть]

Превью на YouTube

[свернуть]

Исполнители/Performers

Brian Johnson – lead vocals
Angus Young – rhythm and lead guitars
Malcolm Young – rhythm guitar, backing vocals
Cliff Williams – bass guitar, backing vocals
Phil Rudd – drums, percussion
[свернуть]

EAC лог

Exact Audio Copy V1.3 from 2. September 2016

EAC extraction logfile from 28. March 2019, 8:24

AC/DC / Ballbreaker

Used drive : PIONEER DVD-RW DVR-220L Adapter: 1 ID: 0

Read mode : Secure
Utilize accurate stream : Yes
Defeat audio cache : Yes
Make use of C2 pointers : No

Read offset correction : 6
Overread into Lead-In and Lead-Out : No
Fill up missing offset samples with silence : Yes
Delete leading and trailing silent blocks : No
Null samples used in CRC calculations : Yes
Used interface : Installed external ASPI interface

Used output format : User Defined Encoder
Selected bitrate : 1024 kBit/s
Quality : High
Add ID3 tag : No
Command line compressor : C:\Program Files (x86)\Exact Audio Copy\Flac\flac.exe
Additional command line options : -6 -V -T "ARTIST=%artist%" -T "TITLE=%title%" -T "ALBUM=%albumtitle%" -T "DATE=%year%" -T "TRACKNUMBER=%tracknr%" -T "GENRE=%genre%" -T "COMMENT=%comment%" -T "BAND=%albuminterpret%" -T "ALBUMARTIST=%albuminterpret%" -T "COMPOSER=%composer%" %haslyrics%--tag-from-file=LYRICS="%lyricsfile%"%haslyrics% -T "DISCNUMBER=%cdnumber%" -T "TOTALDISCS=%totalcds%" -T "TOTALTRACKS=%numtracks%" %hascover%--picture="%coverfile%"%hascover% %source% -o %dest%


TOC of the extracted CD

Track | Start | Length | Start sector | End sector
---------------------------------------------------------
1 | 0:00.00 | 4:31.10 | 0 | 20334
2 | 4:31.10 | 4:32.65 | 20335 | 40799
3 | 9:04.00 | 4:10.50 | 40800 | 59599
4 | 13:14.50 | 4:07.07 | 59600 | 78131
5 | 17:21.57 | 5:34.70 | 78132 | 103251
6 | 22:56.52 | 5:05.35 | 103252 | 126161
7 | 28:02.12 | 5:14.33 | 126162 | 149744
8 | 33:16.45 | 3:14.00 | 149745 | 164294
9 | 36:30.45 | 4:14.55 | 164295 | 183399
10 | 40:45.25 | 4:35.02 | 183400 | 204026
11 | 45:20.27 | 4:31.30 | 204027 | 224381


Range status and errors

Selected range

Filename C:\mm\AcDc\1995 - Ballbreaker [61780-2]\AcDc - Ballbreaker.wav

Peak level 100.0 %
Extraction speed 6.9 X
Range quality 100.0 %
Test CRC 730CAF25
Copy CRC 730CAF25
Copy OK

No errors occurred


AccurateRip summary

Track 1 accurately ripped (confidence 165) [73184A18] (AR v2)
Track 2 accurately ripped (confidence 165) [B4842FC8] (AR v2)
Track 3 accurately ripped (confidence 164) [6B7BCD7A] (AR v2)
Track 4 accurately ripped (confidence 164) [6225C5CA] (AR v2)
Track 5 accurately ripped (confidence 163) [181385B4] (AR v2)
Track 6 accurately ripped (confidence 164) [7D0CDCB1] (AR v2)
Track 7 accurately ripped (confidence 162) [152A6080] (AR v2)
Track 8 accurately ripped (confidence 162) [EE893253] (AR v2)
Track 9 accurately ripped (confidence 161) [963D3BAC] (AR v2)
Track 10 accurately ripped (confidence 160) [CC2E663A] (AR v2)
Track 11 accurately ripped (confidence 162) [5B9DFDC5] (AR v2)

All tracks accurately ripped

End of status report
[свернуть]

Файл CUE

REM GENRE Hard\Rock*
REM DATE 1995
REM DISCID A80BAF0B
REM COMMENT "ExactAudioCopy v1.3"
PERFORMER "AC/DC"
TITLE "Ballbreaker"
REM COMPOSER ""
FILE "AcDc - Ballbreaker.flac" WAVE
TRACK 01 AUDIO
TITLE "Hard As A Rock"
PERFORMER "AC/DC"
REM COMPOSER ""
INDEX 01 00:00:00
TRACK 02 AUDIO
TITLE "Cover You In Oil"
PERFORMER "AC/DC"
REM COMPOSER ""
INDEX 01 04:31:10
TRACK 03 AUDIO
TITLE "The Furor"
PERFORMER "AC/DC"
REM COMPOSER ""
INDEX 01 09:04:00
TRACK 04 AUDIO
TITLE "Boogie Man"
PERFORMER "AC/DC"
REM COMPOSER ""
INDEX 01 13:14:50
TRACK 05 AUDIO
TITLE "The Honey Roll"
PERFORMER "AC/DC"
REM COMPOSER ""
INDEX 00 17:20:12
INDEX 01 17:21:57
TRACK 06 AUDIO
TITLE "Burnin' Alive"
PERFORMER "AC/DC"
REM COMPOSER ""
INDEX 01 22:56:52
TRACK 07 AUDIO
TITLE "Hail Caesar"
PERFORMER "AC/DC"
REM COMPOSER ""
INDEX 01 28:02:12
TRACK 08 AUDIO
TITLE "Love Bomb"
PERFORMER "AC/DC"
REM COMPOSER ""
INDEX 01 33:16:45
TRACK 09 AUDIO
TITLE "Caught With Your Pants Down"
PERFORMER "AC/DC"
REM COMPOSER ""
INDEX 01 36:30:45
TRACK 10 AUDIO
TITLE "Whiskey On The Rocks"
PERFORMER "AC/DC"
REM COMPOSER ""
INDEX 01 40:45:25
TRACK 11 AUDIO
TITLE "Ballbreaker"
PERFORMER "AC/DC"
REM COMPOSER ""
INDEX 01 45:20:27
[свернуть]

Лог проверки качества

AUDIOCHECKER v2.0 beta (build 457) - by Dester - [Ссылки могут видеть только зарегистрированные и активированные пользователи.]
[Only registered and activated users can see links.]
~~~~~~~~~~~~~~~~~~~~~~~~~~~~~~~~~~
-=== НЕ РЕДАКТИРУЙТЕ ЭТОТ ФАЙЛ! ===-

Путь: ...\1995 - Ballbreaker [61780-2]

1 -=- AcDc - Ballbreaker.flac -=- CDDA (100%)

135161060
[свернуть]

Спектр частот

[свернуть]

Скачать Ac/Dc - Ballbreaker

[Ссылки могут видеть только зарегистрированные и активированные пользователи.]
[Only registered and activated users can see links.]

password: sergych
[свернуть]

Контрольная сумма (хеш-сумма) архива

MD5: c83263c4e393f2637f49d9234a14ee18
[свернуть]
My opinion of release: 9/10
__________________
TAIFUN.Wings of Soul

Вверх
Пользователь сказал cпасибо:
TAIFUN (14.04.2019)

Метки
ac/dc , blues rock , hard rock , rock & roll

Опции темы

Ваши права в разделе
Вы не можете создавать новые темы
Вы не можете отвечать в темах
Вы не можете прикреплять вложения
Вы не можете редактировать свои сообщения

Быстрый переход



Текущее время: 05:28. Часовой пояс GMT +3.
Powered by vBulletin® Version 3.8.10
Copyright ©2000 - 2019, vBulletin Solutions, Inc. Перевод: zCarot
© 2008 - 2019 Taifun With Song
Яндекс.Метрика