TAIFUN With Song - качественная и редкая музыка
Навигация
Jazz и Blues Гибкая ритмика, импровизационное начало, гармонии и мелодии - все это Jazz. Blues - жизнеутверждающая музыка, рожденная из душевной боли

А знаете ли Вы, что...
Как появился псевдоним украинской певицы Ани Лорак?
«Украинская певица Каролина Куек стала известна под псевдонимом Ани Лорак благодаря конкурсу «Утренняя звезда-95». Дело в том, что там уже была заявлена другая российская певица под именем Каролина, поэтому украинке пришлось выйти из положения, написав своё имя наоборот.»
 
Опции темы

  #1
Старый 04.04.2019, 17:40
sergych
Координатор
Досье
 
Аватар для sergych
Релиз Zaz - Effet Miroir


2018 - Zaz - Effet Miroir




Исполнитель/Artist: Zaz
Альбом/Album: Effet Miroir
Год/Year: 2018
Жанр/Genre: Pop, jazz, blues, chanson
Страна/Country: Германия
Рекорд-лейбл/Record label: Play On / Warner Music
Номер в каталоге/Catalogue #: 0190295580865
Формат/Format: Free Lossless Audio Codec (*.flac)
Качество/Quality: Lossless
Тип рипа/RIP Type: image+.cue
Продолжительность/Length: 00:52:53
Источник/Source: Собственный рип
Размер/Size: 432.1 MB

Сканы в комплекте

Треклист

01. Demain C'est Toi [0:02:38.60]
02. Qué Vendrá [0:02:58.42]
03. On S'en Remet Jamais [0:03:19.06]
04. J'aime J'aime [0:03:26.16]
05. Mes Souvenirs De Toi [0:03:29.15]
06. Toute Ma Vie [0:02:25.06]
07. Je Parle [0:03:30.63]
08. Résigne-Moi [0:05:17.57]
09. Ma Valse [0:03:35.10]
10. Si C'était À Refaire [0:03:55.48]
11. Pourquoi Tu Joues Faux [0:02:27.56]
12. Plume [0:03:54.48]
13. Nos Vies [0:03:39.44]
14. Saint-Valentin [0:03:17.03]
15. Laponie [0:04:57.69]
[свернуть]

Превью на YouTube

[свернуть]

EAC лог

Exact Audio Copy V1.3 from 2. September 2016

EAC extraction logfile from 9. March 2019, 15:39

Zaz / Effet Miroir

Used drive : PIONEER DVD-RW DVR-220L Adapter: 1 ID: 0

Read mode : Secure
Utilize accurate stream : Yes
Defeat audio cache : Yes
Make use of C2 pointers : No

Read offset correction : 6
Overread into Lead-In and Lead-Out : No
Fill up missing offset samples with silence : Yes
Delete leading and trailing silent blocks : No
Null samples used in CRC calculations : Yes
Used interface : Installed external ASPI interface

Used output format : User Defined Encoder
Selected bitrate : 1024 kBit/s
Quality : High
Add ID3 tag : No
Command line compressor : C:\Program Files (x86)\Exact Audio Copy\Flac\flac.exe
Additional command line options : -6 -V -T "ARTIST=%artist%" -T "TITLE=%title%" -T "ALBUM=%albumtitle%" -T "DATE=%year%" -T "TRACKNUMBER=%tracknr%" -T "GENRE=%genre%" -T "COMMENT=%comment%" -T "BAND=%albuminterpret%" -T "ALBUMARTIST=%albuminterpret%" -T "COMPOSER=%composer%" %haslyrics%--tag-from-file=LYRICS="%lyricsfile%"%haslyrics% -T "DISCNUMBER=%cdnumber%" -T "TOTALDISCS=%totalcds%" -T "TOTALTRACKS=%numtracks%" %hascover%--picture="%coverfile%"%hascover% %source% -o %dest%


TOC of the extracted CD

Track | Start | Length | Start sector | End sector
---------------------------------------------------------
1 | 0:00.00 | 2:38.60 | 0 | 11909
2 | 2:38.60 | 2:58.42 | 11910 | 25301
3 | 5:37.27 | 3:19.06 | 25302 | 40232
4 | 8:56.33 | 3:26.16 | 40233 | 55698
5 | 12:22.49 | 3:29.15 | 55699 | 71388
6 | 15:51.64 | 2:25.06 | 71389 | 82269
7 | 18:16.70 | 3:30.63 | 82270 | 98082
8 | 21:47.58 | 5:17.57 | 98083 | 121914
9 | 27:05.40 | 3:35.10 | 121915 | 138049
10 | 30:40.50 | 3:55.48 | 138050 | 155722
11 | 34:36.23 | 2:27.56 | 155723 | 166803
12 | 37:04.04 | 3:54.48 | 166804 | 184401
13 | 40:58.52 | 3:39.44 | 184402 | 200870
14 | 44:38.21 | 3:17.03 | 200871 | 215648
15 | 47:55.24 | 4:57.69 | 215649 | 237992


Range status and errors

Selected range

Filename C:\mm\ZAZ\2018 - Effet Miroir [0190295580865]\Zaz - Effet Miroir.wav

Peak level 100.0 %
Extraction speed 7.2 X
Range quality 99.9 %
Test CRC B1770F8B
Copy CRC B1770F8B
Copy OK

No errors occurred


AccurateRip summary

Track 1 accurately ripped (confidence 42) [DE6BE541] (AR v2)
Track 2 accurately ripped (confidence 42) [24DCD4E2] (AR v2)
Track 3 accurately ripped (confidence 42) [1F30824C] (AR v2)
Track 4 accurately ripped (confidence 42) [D140DB37] (AR v2)
Track 5 accurately ripped (confidence 42) [50883F09] (AR v2)
Track 6 accurately ripped (confidence 42) [8E8A7BED] (AR v2)
Track 7 accurately ripped (confidence 42) [70227F3F] (AR v2)
Track 8 accurately ripped (confidence 42) [D85D2DE7] (AR v2)
Track 9 accurately ripped (confidence 42) [ED82425E] (AR v2)
Track 10 accurately ripped (confidence 42) [97CF1884] (AR v2)
Track 11 accurately ripped (confidence 42) [073911D1] (AR v2)
Track 12 accurately ripped (confidence 42) [685BA225] (AR v2)
Track 13 accurately ripped (confidence 42) [B76A5475] (AR v2)
Track 14 accurately ripped (confidence 41) [AD8F87F0] (AR v2)
Track 15 accurately ripped (confidence 41) [36A74428] (AR v2)

All tracks accurately ripped

End of status report
[свернуть]

Файл CUE

REM GENRE Chanson
REM DATE 2018
REM DISCID D70C650F
REM COMMENT "ExactAudioCopy v1.3"
PERFORMER "Zaz"
TITLE "Effet Miroir"
REM COMPOSER ""
FILE "Zaz - Effet Miroir.flac" WAVE
TRACK 01 AUDIO
TITLE "Demain C'est Toi"
PERFORMER "Zaz"
REM COMPOSER ""
INDEX 01 00:00:00
TRACK 02 AUDIO
TITLE "Que Vendra"
PERFORMER "Zaz"
REM COMPOSER ""
INDEX 00 02:38:32
INDEX 01 02:38:60
TRACK 03 AUDIO
TITLE "On S'en Remet Jamais"
PERFORMER "Zaz"
REM COMPOSER ""
INDEX 00 05:36:67
INDEX 01 05:37:27
TRACK 04 AUDIO
TITLE "J'aime J'aime"
PERFORMER "Zaz"
REM COMPOSER ""
INDEX 00 08:55:14
INDEX 01 08:56:33
TRACK 05 AUDIO
TITLE "Mes Souvenirs De Toi"
PERFORMER "Zaz"
REM COMPOSER ""
INDEX 00 12:21:56
INDEX 01 12:22:49
TRACK 06 AUDIO
TITLE "Toute Ma Vie"
PERFORMER "Zaz"
REM COMPOSER ""
INDEX 00 15:51:40
INDEX 01 15:51:64
TRACK 07 AUDIO
TITLE "Je Parle"
PERFORMER "Zaz"
REM COMPOSER ""
INDEX 00 18:16:40
INDEX 01 18:16:70
TRACK 08 AUDIO
TITLE "Resigne-Moi"
PERFORMER "Zaz"
REM COMPOSER ""
INDEX 01 21:47:58
TRACK 09 AUDIO
TITLE "Ma Valse"
PERFORMER "Zaz"
REM COMPOSER ""
INDEX 00 27:05:39
INDEX 01 27:05:40
TRACK 10 AUDIO
TITLE "Si C'etait A Refaire"
PERFORMER "Zaz"
REM COMPOSER ""
INDEX 00 30:40:47
INDEX 01 30:40:50
TRACK 11 AUDIO
TITLE "Pourquoi Tu Joues Faux"
PERFORMER "Zaz"
REM COMPOSER ""
INDEX 00 34:35:74
INDEX 01 34:36:23
TRACK 12 AUDIO
TITLE "Plume"
PERFORMER "Zaz"
REM COMPOSER ""
INDEX 00 37:03:30
INDEX 01 37:04:04
TRACK 13 AUDIO
TITLE "Nos Vies"
PERFORMER "Zaz"
REM COMPOSER ""
INDEX 00 40:58:04
INDEX 01 40:58:52
TRACK 14 AUDIO
TITLE "Saint-Valentin"
PERFORMER "Zaz"
REM COMPOSER ""
INDEX 00 44:38:05
INDEX 01 44:38:21
TRACK 15 AUDIO
TITLE "Laponie"
PERFORMER "Zaz"
REM COMPOSER ""
INDEX 00 47:55:12
INDEX 01 47:55:24
[свернуть]

Лог проверки качества

AUDIOCHECKER v2.0 beta (build 457) - by Dester - [Ссылки могут видеть только зарегистрированные и активированные пользователи.]
[Only registered and activated users can see links.]
~~~~~~~~~~~~~~~~~~~~~~~~~~~~~~~~~~
-=== НЕ РЕДАКТИРУЙТЕ ЭТОТ ФАЙЛ! ===-

Путь: ...\2018 - Effet Miroir [0190295580865]

1 -=- Zaz - Effet Miroir.flac -=- CDDA (100%)

63443540
[свернуть]

Спектр частот

[свернуть]

Скачать Zaz - Effet Miroir

[Ссылки могут видеть только зарегистрированные и активированные пользователи.]
[Only registered and activated users can see links.]

password: sergych
[свернуть]

Контрольная сумма (хеш-сумма) архива

MD5: f0cacaa2a3117c5b296b798eb20094af
[свернуть]
My opinion of release: 10/10
__________________
TAIFUN.Wings of Soul

Вверх
3 пользователя(ей) сказали cпасибо:
johnsilver (05.04.2019), swint68 (04.04.2019), TAIFUN (04.04.2019)

Метки
2018 , blues , chanson , effet miroir , jazz , pop , zaz

Опции темы

Ваши права в разделе
Вы не можете создавать новые темы
Вы не можете отвечать в темах
Вы не можете прикреплять вложения
Вы не можете редактировать свои сообщения

Быстрый переход



Текущее время: 15:38. Часовой пояс GMT +3.
Powered by vBulletin® Version 3.8.10
Copyright ©2000 - 2019, vBulletin Solutions, Inc. Перевод: zCarot
© 2008 - 2019 Taifun With Song
Яндекс.Метрика