TAIFUN With Song - качественная и редкая музыка
Навигация
А знаете ли Вы, что...
Почему американская полиция однажды решила, что одну из радиостанций захватили террористы Саддама Хусейна?
«В 1991 году радиостанция KLSK FM в американском городе Альбукерке решила сменить формат на классический рок, в связи с чем 24 часа подряд в эфире звучала песня Led Zeppelin «Stairway to Heaven». Дважды на станцию по просьбе взволнованных слушателей приезжала полиция: один человек заявил, что ди-джей, видимо, получил инфаркт, а другой — что радио захватили террористы, ведь фанатом Led Zeppelin является Саддам Хусейн.»
 
Опции темы

  #1
Старый 12.06.2013, 19:42
sergych
Координатор
Досье
 
Аватар для sergych
Релиз Gubernator - Chukotka. Region 87


2008 - Gubernator - Chukotka. Region 87




Исполнитель/Artist: Gubernator
Альбом/Album: Region 87
Год/Year: 2008
Жанр/Genre: Ethnic, Folk, Rock
Страна/Country: Russia
Формат/Format: Free Lossless Audio Codec (*.flac)
Качество/Quality: Lossless
Тип рипа/RIP Type: tracks+.cue
Продолжительность/Length: 00:47:14
Источник/Source: Из интернета
Размер/Size: 406.7 MB

Сканы в комплекте

Треклист

01. Вероничка
02. Оленёнок
03. Белая пастель
04. Песчинка
05. Жди
06. Чукотка
07. Послушай сердце
08. Разжигание огня
09. Птицы улетают
10. Нерпёночек
11. Не оставляй
12. Кокетство
13. На берегу нашего лета
14. Изгнание духов
15. Пурга
16. Родной край
[свернуть]

Превью на YouTube

[свернуть]

Исполнители/Performers

Вероника Ушолик — Вокал, варган, ярар, шекер
Евгений Григорьев — Гитара, бэк-вокал
Дмитрий Борисенков — Бас-гитара, бэк-вокал
Роман Астров — Барабаны, бэк-вокал
Герман Ольшук - Клавишные, гитара
[свернуть]

Файл CUE

REM GENRE "Folk-Rock"
REM DATE 2008
REM DISCID D80B1210
REM COMMENT "ExactAudioCopy v0.99pb5"
PERFORMER "Gubernator"
TITLE "Chukotka - region 87"
FILE "01. Вероничка.flac" WAVE
TRACK 01 AUDIO
TITLE "Вероничка"
PERFORMER "Gubernator"
INDEX 01 00:00:00
FILE "02. Оленёнок.flac" WAVE
TRACK 02 AUDIO
TITLE "Оленёнок"
PERFORMER "Gubernator"
INDEX 01 00:00:00
FILE "03. Белая пастель.flac" WAVE
TRACK 03 AUDIO
TITLE "Белая пастель"
PERFORMER "Gubernator"
INDEX 01 00:00:00
FILE "04. Песчинка.flac" WAVE
TRACK 04 AUDIO
TITLE "Песчинка"
PERFORMER "Gubernator"
INDEX 01 00:00:00
FILE "05. Жди.flac" WAVE
TRACK 05 AUDIO
TITLE "Жди"
PERFORMER "Gubernator"
INDEX 01 00:00:00
FILE "06. Чукотка.flac" WAVE
TRACK 06 AUDIO
TITLE "Чукотка"
PERFORMER "Gubernator"
INDEX 01 00:00:00
FILE "07. Послушай сердце.flac" WAVE
TRACK 07 AUDIO
TITLE "Послушай сердце"
PERFORMER "Gubernator"
INDEX 01 00:00:00
FILE "08. Разжигание огня.flac" WAVE
TRACK 08 AUDIO
TITLE "Разжигание огня"
PERFORMER "Gubernator"
INDEX 01 00:00:00
FILE "09. Птицы улетают.flac" WAVE
TRACK 09 AUDIO
TITLE "Птицы улетают"
PERFORMER "Gubernator"
INDEX 01 00:00:00
FILE "10. Нерпёночек.flac" WAVE
TRACK 10 AUDIO
TITLE "Нерпёночек"
PERFORMER "Gubernator"
INDEX 01 00:00:00
FILE "11. Не оставляй.flac" WAVE
TRACK 11 AUDIO
TITLE "Не оставляй"
PERFORMER "Gubernator"
INDEX 01 00:00:00
FILE "12. Кокетство.flac" WAVE
TRACK 12 AUDIO
TITLE "Кокетство"
PERFORMER "Gubernator"
INDEX 01 00:00:00
FILE "13. На берегу нашего лета.flac" WAVE
TRACK 13 AUDIO
TITLE "На берегу нашего лета"
PERFORMER "Gubernator"
INDEX 01 00:00:00
FILE "14. Изгнание духов.flac" WAVE
TRACK 14 AUDIO
TITLE "Изгнание духов"
PERFORMER "Gubernator"
INDEX 01 00:00:00
FILE "15. Пурга.flac" WAVE
TRACK 15 AUDIO
TITLE "Пурга"
PERFORMER "Gubernator"
INDEX 01 00:00:00
FILE "16. Родной край.flac" WAVE
TRACK 16 AUDIO
TITLE "Родной край"
PERFORMER "Gubernator"
INDEX 01 00:00:00
[свернуть]

Лог проверки качества

AUDIOCHECKER v2.0 beta (build 457) - by Dester - [Ссылки могут видеть только зарегистрированные и активированные пользователи.]
[Only registered and activated users can see links.]
~~~~~~~~~~~~~~~~~~~~~~~~~~~~~~~~~~
-=== НЕ РЕДАКТИРУЙТЕ ЭТОТ ФАЙЛ! ===-

Путь: ...\2008 - Chukotka. Region 87

01 -=- 01. Вероничка.flac -=- CDDA (100%)
02 -=- 02. Оленёнок.flac -=- CDDA (100%)
03 -=- 03. Белая пастель.flac -=- CDDA (100%)
04 -=- 04. Песчинка.flac -=- CDDA (100%)
05 -=- 05. Жди.flac -=- CDDA (100%)
06 -=- 06. Чукотка.flac -=- CDDA (100%)
07 -=- 07. Послушай сердце.flac -=- CDDA (100%)
08 -=- 08. Разжигание огня.flac -=- CDDA (99%)
09 -=- 09. Птицы улетают.flac -=- CDDA (100%)
10 -=- 10. Нерпёночек.flac -=- CDDA (100%)
11 -=- 11. Не оставляй.flac -=- CDDA (100%)
12 -=- 12. Кокетство.flac -=- CDDA (100%)
13 -=- 13. На берегу нашего лета.flac -=- CDDA (100%)
14 -=- 14. Изгнание духов.flac -=- CDDA (100%)
15 -=- 15. Пурга.flac -=- CDDA (100%)
16 -=- 16. Родной край.flac -=- CDDA (100%)

Сводка 99,94% CDDA

65096388
[свернуть]

Скачать Gubernator - Chukotka. Region 87

[Ссылки могут видеть только зарегистрированные и активированные пользователи.]
[Only registered and activated users can see links.]

password: sergych
[свернуть]

Контрольная сумма (хеш-сумма) архива

MD5: 2f5170b44e6d5e36503c5325382cac5e
[свернуть]
My opinion of release: 8/10

Release info RInfo

Интересная смесь этнического рока с элементами блюз-рока, а местами с "металлическим" уклоном. Мне скорее даже понравилось, хотя, в целом, - не моё направление

Лога рипа нет, а *.cue сделал в CUETools
__________________
TAIFUN.Wings of Soul


Последний раз редактировалось sergych, 31.03.2019 в 23:53. Причина: перезаливка
Вверх
Пользователь сказал cпасибо:
aheron (12.06.2013)
  #2
Старый 30.03.2019, 21:02
rodrituc
Пользователь
Досье
 
Аватар для rodrituc
По умолчанию Re: Gubernator - Chukotka - region 87

Hola quisiera el link de este álbum

Вверх
Пользователь сказал cпасибо:
sergych (31.03.2019)
  #3
Старый 31.03.2019, 23:59
sergych
Координатор
Досье
 
Аватар для sergych
По умолчанию Re: Gubernator - Chukotka - region 87

rodrituc, перезалито. Скачивайте и слушайте на здоровье
Puedes descargar y escuchar.
__________________
TAIFUN.Wings of Soul

Вверх

Метки
2008 , chukotka - region 87 , ethnic , folk , gubernator , rock

Опции темы

Ваши права в разделе
Вы не можете создавать новые темы
Вы не можете отвечать в темах
Вы не можете прикреплять вложения
Вы не можете редактировать свои сообщения

Быстрый переход



Текущее время: 06:12. Часовой пояс GMT +3.
Powered by vBulletin® Version 3.8.10
Copyright ©2000 - 2019, vBulletin Solutions, Inc. Перевод: zCarot
© 2008 - 2019 Taifun With Song
Яндекс.Метрика