TAIFUN With Song - качественная и редкая музыка
Навигация
Jazz и Blues Гибкая ритмика, импровизационное начало, гармонии и мелодии - все это Jazz. Blues - жизнеутверждающая музыка, рожденная из душевной боли

А знаете ли Вы, что...
Почему Майкл Джексон получал половину доходов от продаж песен Beatles?
«В 1984 году на аукционе продавались издательские права на песни Beatles. Его выиграл Майкл Джексон, заплатив почти 50 миллионов долларов — больше, чем предлагал сам Пол Маккартни. С этого времени Джексон получал половину доходов от продаж Beatles (другую половину получали авторы песен, главным образом Маккартни). В 1995 году компания Sony выкупила у Джексона половину его прав, так что в последнее время он получал только четверть доходов.»
 
Опции темы

  #1
Старый 01.08.2020, 18:43
sergych
Координатор
Досье
 
Аватар для sergych
FLAC Marcus Miller - Marcus


2008 - Marcus Miller - Marcus




Исполнитель/Artist: Marcus Miller
Альбом/Album: Marcus
Год/Year: 2008
Жанр/Genre: jazz fusion, jazz-funk
Страна/Country: Соединённые Штаты
Рекорд-лейбл/Record label: Concord Jazz
Номер в каталоге/Catalogue #: CCD-30264
Формат/Format: Free Lossless Audio Codec (*.flac)
Качество/Quality: Lossless
Тип рипа/RIP Type: image+.cue


Продолжительность/Length: 01:10:55
Источник/Source: Собственный рип
Размер/Size: 490.5 MB

Сканы в комплекте

Треклист

01. Blast [0:05:43.25]
02. Funk Joint [0:05:12.50]
03. Marcus Miller feat. Corinne Bailey Rae / Free [0:05:00.38]
04. Higher Ground [0:05:10.64]
05. Marcus Miller feat. Keb' Mo' / Milky Way [0:05:36.41]
06. Pluck (interlude) [0:03:19.16]
07. Lost Without U [0:04:41.66]
08. Marcus Miller feat. Shihan the Poet / 'Cause I Want You [0:03:12.74]
09. Marcus Miller feat. Lalah Hathaway / Ooh [0:04:00.14]
10. When I Fall in Love [0:05:23.38]
11. Strum [0:05:41.34]
12. Jean Pierre [0:06:15.47]
13. What Is Hip? [0:06:02.43]
14. Marcus Miller feat. Taraji P. Henson / Lost Without U (Spoken Word) [0:05:34.00]
[свернуть]

Превью на YouTube

[свернуть]

Исполнители/Performers

Corinne Bailey Rae – vocals on "Free"
Keb' Mo' – vocals on "Milky Way"
Lalah Hathaway – vocals on "Ooh"
Shihan the Poet – vocals on "'Cause I Want You"
Taraji P. Henson – vocals on "Lost Without U (Spoken Word)"
Gussie Miller – backing vocals
David Sanborn – alto saxophone
Tom Scott – tenor saxophone
Michael "Patches" Stewart – trumpet, flügelhorn
Paul Jackson, Jr. – guitar
Bernard Wright – organ, synth
Gregoire Maret – harmonica
Poogie Bell – drums
[свернуть]

EAC лог

Exact Audio Copy V1.5 from 20. February 2020

EAC extraction logfile from 19. July 2020, 15:06

Marcus Miller / Marcus

Used drive : PIONEER DVD-RW DVR-220L Adapter: 1 ID: 0

Read mode : Secure
Utilize accurate stream : Yes
Defeat audio cache : Yes
Make use of C2 pointers : No

Read offset correction : 6
Overread into Lead-In and Lead-Out : No
Fill up missing offset samples with silence : Yes
Delete leading and trailing silent blocks : No
Null samples used in CRC calculations : Yes
Used interface : Installed external ASPI interface

Used output format : User Defined Encoder
Selected bitrate : 1024 kBit/s
Quality : High
Add ID3 tag : No
Command line compressor : C:\Program Files (x86)\Exact Audio Copy\Flac\flac.exe
Additional command line options : -6 -V -T "ARTIST=%artist%" -T "TITLE=%title%" -T "ALBUM=%albumtitle%" -T "DATE=%year%" -T "TRACKNUMBER=%tracknr%" -T "GENRE=%genre%" -T "COMMENT=%comment%" -T "BAND=%albuminterpret%" -T "ALBUMARTIST=%albuminterpret%" -T "COMPOSER=%composer%" %haslyrics%--tag-from-file=LYRICS="%lyricsfile%"%haslyrics% -T "DISCNUMBER=%cdnumber%" -T "TOTALDISCS=%totalcds%" -T "TOTALTRACKS=%numtracks%" %hascover%--picture="%coverfile%"%hascover% %source% -o %dest%


TOC of the extracted CD

Track | Start | Length | Start sector | End sector
---------------------------------------------------------
1 | 0:00.00 | 5:43.25 | 0 | 25749
2 | 5:43.25 | 5:12.50 | 25750 | 49199
3 | 10:56.00 | 5:00.38 | 49200 | 71737
4 | 15:56.38 | 5:10.64 | 71738 | 95051
5 | 21:07.27 | 5:36.41 | 95052 | 120292
6 | 26:43.68 | 3:19.16 | 120293 | 135233
7 | 30:03.09 | 4:41.66 | 135234 | 156374
8 | 34:45.00 | 3:12.74 | 156375 | 170848
9 | 37:57.74 | 4:00.14 | 170849 | 188862
10 | 41:58.13 | 5:23.38 | 188863 | 213125
11 | 47:21.51 | 5:41.34 | 213126 | 238734
12 | 53:03.10 | 6:15.47 | 238735 | 266906
13 | 59:18.57 | 6:02.43 | 266907 | 294099
14 | 65:21.25 | 5:34.00 | 294100 | 319149


Range status and errors

Selected range

Filename C:\mm\Marcus Miller\2008 - Marcus [CCD-30264]\Marcus Miller - Marcus.wav

Peak level 100.0 %
Extraction speed 8.3 X
Range quality 100.0 %
Test CRC 9BEB5587
Copy CRC 9BEB5587
Copy OK

No errors occurred


AccurateRip summary

Track 1 accurately ripped (confidence 2) [607732E5] (AR v2)
Track 2 accurately ripped (confidence 2) [16A65C1F] (AR v2)
Track 3 accurately ripped (confidence 2) [7B21C4F1] (AR v2)
Track 4 accurately ripped (confidence 2) [A5661DD3] (AR v2)
Track 5 accurately ripped (confidence 2) [B977E719] (AR v2)
Track 6 accurately ripped (confidence 2) [F343BD16] (AR v2)
Track 7 accurately ripped (confidence 2) [5981E6D3] (AR v2)
Track 8 accurately ripped (confidence 2) [A246C761] (AR v2)
Track 9 accurately ripped (confidence 2) [EE310385] (AR v2)
Track 10 accurately ripped (confidence 2) [82CBDFA1] (AR v2)
Track 11 accurately ripped (confidence 2) [392B6449] (AR v2)
Track 12 accurately ripped (confidence 2) [5C3CC0A3] (AR v2)
Track 13 accurately ripped (confidence 2) [7ACB3776] (AR v2)
Track 14 accurately ripped (confidence 2) [D1D8AB03] (AR v2)

All tracks accurately ripped

End of status report

---- CUETools DB Plugin V2.1.6

[CTDB TOCID: cNr3llTKLeGmEK51Ur6Y2GoRh94-] found
Submit result: cNr3llTKLeGmEK51Ur6Y2GoRh94- has been confirmed
Track | CTDB Status
1 | (110/110) Accurately ripped
2 | (110/110) Accurately ripped
3 | (110/110) Accurately ripped
4 | (110/110) Accurately ripped
5 | (110/110) Accurately ripped
6 | (110/110) Accurately ripped
7 | (109/110) Accurately ripped
8 | (109/110) Accurately ripped
9 | (110/110) Accurately ripped
10 | (110/110) Accurately ripped
11 | (110/110) Accurately ripped
12 | (109/110) Accurately ripped
13 | (108/110) Accurately ripped
14 | (106/110) Accurately ripped
[свернуть]

Файл CUE

REM GENRE Jazz+Funk
REM DATE 2008
REM DISCID D2109F0E
REM COMMENT "ExactAudioCopy v1.5"
PERFORMER "Marcus Miller"
TITLE "Marcus"
REM COMPOSER ""
FILE "Marcus Miller - Marcus.flac" WAVE
TRACK 01 AUDIO
TITLE "Blast"
PERFORMER "Marcus Miller"
REM COMPOSER ""
INDEX 01 00:00:00
TRACK 02 AUDIO
TITLE "Funk Joint"
PERFORMER "Marcus Miller"
REM COMPOSER ""
INDEX 01 05:43:25
TRACK 03 AUDIO
TITLE "Free"
PERFORMER "Marcus Miller feat. Corinne Bailey Rae"
REM COMPOSER ""
INDEX 00 10:53:65
INDEX 01 10:56:00
TRACK 04 AUDIO
TITLE "Higher Ground"
PERFORMER "Marcus Miller"
REM COMPOSER ""
INDEX 01 15:56:38
TRACK 05 AUDIO
TITLE "Milky Way"
PERFORMER "Marcus Miller feat. Keb' Mo'"
REM COMPOSER ""
INDEX 01 21:07:27
TRACK 06 AUDIO
TITLE "Pluck (interlude)"
PERFORMER "Marcus Miller"
REM COMPOSER ""
INDEX 01 26:43:68
TRACK 07 AUDIO
TITLE "Lost Without U"
PERFORMER "Marcus Miller"
REM COMPOSER ""
INDEX 00 30:01:29
INDEX 01 30:03:09
TRACK 08 AUDIO
TITLE "'Cause I Want You"
PERFORMER "Marcus Miller feat. Shihan the Poet"
REM COMPOSER ""
INDEX 00 34:43:63
INDEX 01 34:45:00
TRACK 09 AUDIO
TITLE "Ooh"
PERFORMER "Marcus Miller feat. Lalah Hathaway"
REM COMPOSER ""
INDEX 00 37:56:56
INDEX 01 37:57:74
TRACK 10 AUDIO
TITLE "When I Fall in Love"
PERFORMER "Marcus Miller"
REM COMPOSER ""
INDEX 00 41:56:29
INDEX 01 41:58:13
TRACK 11 AUDIO
TITLE "Strum"
PERFORMER "Marcus Miller"
REM COMPOSER ""
INDEX 01 47:21:51
TRACK 12 AUDIO
TITLE "Jean Pierre"
PERFORMER "Marcus Miller"
REM COMPOSER ""
INDEX 00 53:01:49
INDEX 01 53:03:10
TRACK 13 AUDIO
TITLE "What Is Hip?"
PERFORMER "Marcus Miller"
REM COMPOSER ""
INDEX 00 59:16:29
INDEX 01 59:18:57
TRACK 14 AUDIO
TITLE "Lost Without U (Spoken Word)"
PERFORMER "Marcus Miller feat. Taraji P. Henson"
REM COMPOSER ""
INDEX 00 65:16:71
INDEX 01 65:21:25
[свернуть]

Лог проверки качества

AUDIOCHECKER v2.0 beta (build 457) - by Dester - [Ссылки могут видеть только зарегистрированные и активированные пользователи.]
[Only registered and activated users can see links.]
~~~~~~~~~~~~~~~~~~~~~~~~~~~~~~~~~~
-=== НЕ РЕДАКТИРУЙТЕ ЭТОТ ФАЙЛ! ===-

Путь: ...\2008 - Marcus [CCD-30264]

1 -=- Marcus Miller - Marcus.flac -=- CDDA (100%)

87928852
----------------
PERFORMER: auCDtect Task Manager, ver. 1.6.0 RC1 build 1.6.0.1
Copyright © 2008-2010 y-soft. All rights reserved
[Ссылки могут видеть только зарегистрированные и активированные пользователи.]
[Only registered and activated users can see links.]

ANALYZER: auCDtect: CD records authenticity detector, version 0.8.2
Copyright © 2004 Oleg Berngardt. All rights reserved.
Copyright © 2004 Alexander Djourik. All rights reserved.


FILE: Marcus Miller - Marcus.flac
Size: 466790397 Hash: FBA4A422C9F082DEE3D4FB583B29EB5A Accuracy: -m8
Conclusion: CDDA 100%
Signature: 4741C55938E989B49C3C7D6140B8F86B4710B2D8
[свернуть]

Спектр частот

[свернуть]

Скачать Marcus Miller - Marcus

[Ссылки могут видеть только зарегистрированные и активированные пользователи.]
[Only registered and activated users can see links.]

password: sergych
[свернуть]

Контрольная сумма (хеш-сумма) архива

MD5: 993dff6129836ee1c7016168fd8dc247
[свернуть]
My opinion of release: 9/10

Release info RInfo

Предполагаю, что пиратка. Качественная, но пиратка
Сам альбом - американская версия ранее выпущенного альбома Free. Эта версия имеет не только дополнительные треки, но и различные миксы, другую обложку и измененный порядок треков
__________________
TAIFUN.Wings of Soul

Вверх
Пользователь сказал cпасибо:
TAIFUN (02.08.2020)
 
Похожие темы
Тема Автор Раздел Ответов Последнее сообщение
Альбом Marcus Miller - Renaissance sergych Jazz и Blues 0 26.09.2012 20:38
Релиз Marcus Intalex - 21 PUPOKIN Drum & Bass 0 26.04.2011 09:46
Релиз Marcus Visionary - Humble PUPOKIN Drum & Bass 0 06.01.2011 08:47
Релиз Marcus Johnson - Poetically Justified PUPOKIN Jazz и Blues 0 13.10.2009 09:35
Marcus Schossow DarkDan Trance 3 23.08.2008 13:01


Метки
2008 , jazz fusion , jazz-funk , marcus , marcus miller

Опции темы

Ваши права в разделе
Вы не можете создавать новые темы
Вы не можете отвечать в темах
Вы не можете прикреплять вложения
Вы не можете редактировать свои сообщения

Быстрый переход


Текущее время: 09:41. Часовой пояс GMT +3.

© 2008 - 2020 Taifun With Song
Powered by vBulletin® Version 3.8.10
Copyright ©2000 - 2020, vBulletin Solutions, Inc. Перевод: zCarot
При поддержке NIC.UA
Яндекс.Метрика