TAIFUN With Song - качественная и редкая музыка
Навигация
Heavy Metal Выражение "Heavy Metall" впервые появилось в романе известного американского писателя Уильяма Берроуза "Naked Lunch" (1959), где он использует этот термин для описания резкой, непривычной музыки. Элемент импровизации в истинном "металле" практически сведен к нулю, точнее - он отсутствует в традиционном смысле этого слова, однако опытные "металлические" группы (Metallica, Slayer, Megadeth) часто вводят в свои композиции очень сложные изменения ритма, и у неподготовленного слушателя может возникнуть ощущение какофонии, хотя речь идет о ритмической импровизации, по духу очень близкой той, которую исследуют серьезные современные композиторы.

А знаете ли Вы, что...
Почему обложку музыкального сборника
«В 2005 году Sony BMG выпустила музыкальный сборник ‘Electric 80s’. В оформлении обложки диска был использован большой штрих-код. Некоторые супермаркеты потерпели убытки после того, как их продавцы считывали сканерами именно этот штрих-код вместо обычного, располагающегося на обратной стороне диска. Сканеры распознавали по коду другой товар, который стоил дешевле. Во второй партии дисков обложка была изменена.»
 
Опции темы

  #1
Старый 31.07.2020, 08:38
swint68
Релизёр
Досье
 
Аватар для swint68
WV Sylvain Rouviere's Kaktus Project - Superstition


2011 - Sylvain Rouviere's Kaktus Project - Superstition




Исполнитель/Artist: Sylvain Rouviere's Kaktus Project
Альбом/Album: Superstition
Год/Year: 2011
Жанр/Genre: Heavy Metal, Power Metal, Hard Rock
Страна/Country: Канада
Рекорд-лейбл/Record label: Metalodic Records
Номер в каталоге/Catalogue #: MLC006
Формат/Format: WavPack (*.wv)
Качество/Quality: Lossless
Тип рипа/RIP Type: image+.cue
Продолжительность/Length: 00:55:26
Источник/Source: FireSnake
Размер/Size: 399 MB

Сканы в комплекте

Треклист

01. Farewell
02. Superstition
03. Above The Flame
04. Tonight
05. Possession
06. The Sadness
07. Dark Room
08. Alone In The Dark
09. Cold In The Night
10. I'm Living In My Death
11. My Tears
12. Resurrection
13. Bohemian Rhapsody (bonus' Queen cover)
[свернуть]

Превью на YouTube

[свернуть]

EAC лог

Exact Audio Copy V0.99 prebeta 5 from 4. May 2009

EAC extraction logfile from 4. August 2011, 19:17

Kaktus Project / Superstition

Used drive : Optiarc DVD RW AD-7260S Adapter: 3 ID: 0

Read mode : Secure
Utilize accurate stream : Yes
Defeat audio cache : Yes
Make use of C2 pointers : No

Read offset correction : 48
Overread into Lead-In and Lead-Out : No
Fill up missing offset samples with silence : Yes
Delete leading and trailing silent blocks : No
Null samples used in CRC calculations : Yes
Used interface : Installed external ASPI interface

Used output format : User Defined Encoder
Selected bitrate : 1024 kBit/s
Quality : High
Add ID3 tag : No
Command line compressor : D:\Program Files\Exact Audio Copy\WavPack\wavpack.exe
Additional command line options : -hhx6 -w "Artist=%a" -w "Album=%g" -w "Year=%y" -w "Genre=%m" -w "Cuesheet=@*.cue" %s %d


TOC of the extracted CD

Track | Start | Length | Start sector | End sector
---------------------------------------------------------
1 | 0:00.00 | 4:55.00 | 0 | 22124
2 | 4:55.00 | 3:38.74 | 22125 | 38548
3 | 8:33.74 | 4:00.01 | 38549 | 56549
4 | 12:34.00 | 5:17.00 | 56550 | 80324
5 | 17:51.00 | 3:19.00 | 80325 | 95249
6 | 21:10.00 | 4:08.74 | 95250 | 113923
7 | 25:18.74 | 4:48.00 | 113924 | 135523
8 | 30:06.74 | 3:45.00 | 135524 | 152398
9 | 33:51.74 | 3:25.01 | 152399 | 167774
10 | 37:17.00 | 4:28.74 | 167775 | 187948
11 | 41:45.74 | 3:52.00 | 187949 | 205348
12 | 45:37.74 | 4:03.01 | 205349 | 223574
13 | 49:41.00 | 5:45.03 | 223575 | 249452


Range status and errors

Selected range

Filename H:\KAKTUS PROJECT [2011] [CD] Superstition [EAC-WV]\Kaktus Project - Superstition.wav

Peak level 96.6 %
Range quality 100.0 %
Test CRC 62E4812B
Copy CRC 62E4812B
Copy OK

No errors occurred


AccurateRip summary

Track 1 not present in database
Track 2 not present in database
Track 3 not present in database
Track 4 not present in database
Track 5 not present in database
Track 6 not present in database
Track 7 not present in database
Track 8 not present in database
Track 9 not present in database
Track 10 not present in database
Track 11 not present in database
Track 12 not present in database
Track 13 not present in database

None of the tracks are present in the AccurateRip database

End of status report
[свернуть]

Файл CUE

REM GENRE "Power Metal"
REM DATE 2011
REM DISCID B20CFE0D
REM COMMENT "ExactAudioCopy v0.99pb5"
PERFORMER "Kaktus Project"
TITLE "Superstition"
FILE "Kaktus Project - Superstition.wv" WAVE
TRACK 01 AUDIO
TITLE "Farewell"
PERFORMER "Kaktus Project"
INDEX 01 00:00:00
TRACK 02 AUDIO
TITLE "Superstition"
PERFORMER "Kaktus Project"
INDEX 00 04:53:01
INDEX 01 04:55:00
TRACK 03 AUDIO
TITLE "Above The Flame"
PERFORMER "Kaktus Project"
INDEX 00 08:32:00
INDEX 01 08:33:74
TRACK 04 AUDIO
TITLE "Tonight"
PERFORMER "Kaktus Project"
INDEX 00 12:32:01
INDEX 01 12:34:00
TRACK 05 AUDIO
TITLE "Possession"
PERFORMER "Kaktus Project"
INDEX 00 17:49:01
INDEX 01 17:51:00
TRACK 06 AUDIO
TITLE "The Sadness"
PERFORMER "Kaktus Project"
INDEX 00 21:08:01
INDEX 01 21:10:00
TRACK 07 AUDIO
TITLE "Dark Room"
PERFORMER "Kaktus Project"
INDEX 00 25:17:00
INDEX 01 25:18:74
TRACK 08 AUDIO
TITLE "Alone In The dark"
PERFORMER "Kaktus Project"
INDEX 00 30:05:00
INDEX 01 30:06:74
TRACK 09 AUDIO
TITLE "Cold In The Night"
PERFORMER "Kaktus Project"
INDEX 00 33:50:00
INDEX 01 33:51:74
TRACK 10 AUDIO
TITLE "I'm Living In My Death"
PERFORMER "Kaktus Project"
INDEX 00 37:15:01
INDEX 01 37:17:00
TRACK 11 AUDIO
TITLE "My Tears"
PERFORMER "Kaktus Project"
INDEX 00 41:44:00
INDEX 01 41:45:74
TRACK 12 AUDIO
TITLE "Resurrection"
PERFORMER "Kaktus Project"
INDEX 00 45:36:00
INDEX 01 45:37:74
TRACK 13 AUDIO
TITLE "Bohemian Rhapsody (bonus track)"
PERFORMER "Kaktus Project"
INDEX 00 49:39:01
INDEX 01 49:41:00
[свернуть]

Лог проверки качества

-----------------------

DON'T MODIFY THIS FILE

-----------------------

PERFORMER: auCDtect Task Manager, ver. 1.6.0 RC1 build 1.6.0.1
Copyright © 2008-2010 y-soft. All rights reserved
[Ссылки могут видеть только зарегистрированные и активированные пользователи.]
[Only registered and activated users can see links.]

ANALYZER: auCDtect: CD records authenticity detector, version 0.8.2
Copyright © 2004 Oleg Berngardt. All rights reserved.
Copyright © 2004 Alexander Djourik. All rights reserved.


FILE: Kaktus Project - Superstition.wv
Size: 400327512 Hash: 580E76ACFD31717C2132B96D81CCF3B3 Accuracy: -m0
Conclusion: CDDA 100%
Signature: B2572213EDB12EDB102EEDE9BAAD9C2C35E13159
[свернуть]

Скачать Sylvain Rouviere's Kaktus Project - Superstition

[Ссылки могут видеть только зарегистрированные и активированные пользователи.]
[Only registered and activated users can see links.]
[свернуть]

Вверх
2 пользователя(ей) сказали cпасибо:
sergych (31.07.2020), TAIFUN (31.07.2020)
 
Похожие темы
Тема Автор Раздел Ответов Последнее сообщение
Релиз Kaktus Project - Superstition PUPOKIN Power Metal 0 08.08.2011 09:15
Релиз The D Project - Big Face PUPOKIN Progressive Rock 0 20.04.2011 09:37
Сборник Tech Project - Vol.3 PUPOKIN House 0 08.07.2009 11:32
VA Tshitraka Project DarkDan Psychedelic 0 27.05.2008 18:48
Ian Carey Project DarkDan House 0 16.05.2008 14:10


Метки
2011 , hard rock , heavy metal , power metal , superstition , sylvain rouviere's kaktus project

Опции темы

Ваши права в разделе
Вы не можете создавать новые темы
Вы не можете отвечать в темах
Вы не можете прикреплять вложения
Вы не можете редактировать свои сообщения

Быстрый переход


Текущее время: 09:12. Часовой пояс GMT +3.

© 2008 - 2020 Taifun With Song
Powered by vBulletin® Version 3.8.10
Copyright ©2000 - 2020, vBulletin Solutions, Inc. Перевод: zCarot
При поддержке NIC.UA
Яндекс.Метрика