TAIFUN With Song - качественная и редкая музыка
Навигация
Alternative Rock Альтернативный рок — термин в современной музыке, под которым понимают различные жанры рок-музыки, противопоставляющие себя традиционным. Термин появился в 1980-е гг. и охватывал множество жанров, берущих своё начало в панк-роке, постпанке и др. В настоящее время альтернативный рок разделяют на две стадии: первая — это группы 1980-х гг. с широким диапазоном музыкальной самоидентификации; вторая — группы 1990-х гг., получившие после коммерческого успеха американского гранжа в 1991—1993 гг. такую же поддержку крупных лейблов и раскрутку, как и традиционные эстрадные и рок-коллективы (сам альтернативный рок в те годы стал ассоциироваться в основном с гранжем и постгранжевыми группами, сам, таким образом, став жанром), при этом более бескомпромиссные ансамбли ушли в андерграунд.

А знаете ли Вы, что...
Почему сборник песен называется альбомом?
«На ранних грампластинках из-за большой толщины дорожки одна сторона вмещала только несколько минут музыки. Большой концерт продавали записанным на нескольких пластинках в коробках, похожих на фотоальбомы. Поэтому сборники песен и стали именовать «альбомами» — название осталось, даже когда благодаря технологическим усовершенствованиям эти сборники стало возможным умещать только на одну пластинку.»
 
Опции темы

  #1
Старый 30.07.2020, 08:14
sergych
Координатор
Досье
 
Аватар для sergych
FLAC Neneh Cherry - Man


1996 - Neneh Cherry - Man




Исполнитель/Artist: Neneh Cherry
Альбом/Album: Man
Год/Year: 1996
Жанр/Genre: Worldbeat, trip hop, alternative rock
Страна/Country: Италия
Рекорд-лейбл/Record label: Virgin Records / Circa Records
Номер в каталоге/Catalogue #: 8419822
Формат/Format: Free Lossless Audio Codec (*.flac)
Качество/Quality: Lossless
Тип рипа/RIP Type: image+.cue


Продолжительность/Length: 00:48:20
Источник/Source: Собственный рип
Размер/Size: 333.9 MB

Сканы в комплекте

Треклист

01. Woman [0:04:30.30]
02. Feel It [0:05:41.65]
03. Hornbeam [0:05:02.40]
04. Trouble Man [0:03:57.12]
05. Golden Ring [0:03:40.70]
06. 7 Seconds [0:04:59.48]
07. Kootchi [0:05:06.00]
08. Beastiality [0:02:49.22]
09. Carry Me [0:04:22.03]
10. Together Now [0:03:11.52]
11. Everything [0:04:58.15]
[свернуть]

Превью на YouTube

[свернуть]

Исполнители/Performers

Neneh Cherry - vocals
Cameron McVey - Producer, beats, drums, keyboards
Louis Pavlou - percussion, drums on "Kootchi"
Gavyn Wrightб Wil Malone - string arrangements
Mark Saundersб Paul Anthony Taylor - programming
Jonny Stephens - electric guitar, Casio
Steve "Grippa" Hopwood - guitar, backing vocals
Jonny Dollar - guitar, programming, beats, string arrangements
Youssou N'Dour - vocals on "7 Seconds"
Christian "Falcon" Falk - producer, programming on "7 Seconds"
Jonas Lindgren - violin on "7 Seconds"
Kristoffer Wallman - keyboards on "7 Seconds"
Bernard Butler - guitar on "Woman"
Mickey P. Petralia - beats on "Woman"
Jeff Bryant, Mike Thompson - French horn on "Woman"
Bill McDonald - bass, rhythm guitar, vocals on "Kootchi"
Rich King - guitar on "Kootchi"
Eagle-Eye Cherry - piano on "Trouble Man"
Makoto Sakamoto - drums on "Hornbeam"
Rudi Lagrilliere - guitar on "Golden Ring"
[свернуть]

EAC лог

Exact Audio Copy V1.5 from 20. February 2020

EAC extraction logfile from 18. July 2020, 21:23

Neneh Cherry / Man

Used drive : PIONEER DVD-RW DVR-220L Adapter: 1 ID: 0

Read mode : Secure
Utilize accurate stream : Yes
Defeat audio cache : Yes
Make use of C2 pointers : No

Read offset correction : 6
Overread into Lead-In and Lead-Out : No
Fill up missing offset samples with silence : Yes
Delete leading and trailing silent blocks : No
Null samples used in CRC calculations : Yes
Used interface : Installed external ASPI interface

Used output format : User Defined Encoder
Selected bitrate : 1024 kBit/s
Quality : High
Add ID3 tag : No
Command line compressor : C:\Program Files (x86)\Exact Audio Copy\Flac\flac.exe
Additional command line options : -6 -V -T "ARTIST=%artist%" -T "TITLE=%title%" -T "ALBUM=%albumtitle%" -T "DATE=%year%" -T "TRACKNUMBER=%tracknr%" -T "GENRE=%genre%" -T "COMMENT=%comment%" -T "BAND=%albuminterpret%" -T "ALBUMARTIST=%albuminterpret%" -T "COMPOSER=%composer%" %haslyrics%--tag-from-file=LYRICS="%lyricsfile%"%haslyrics% -T "DISCNUMBER=%cdnumber%" -T "TOTALDISCS=%totalcds%" -T "TOTALTRACKS=%numtracks%" %hascover%--picture="%coverfile%"%hascover% %source% -o %dest%


TOC of the extracted CD

Track | Start | Length | Start sector | End sector
---------------------------------------------------------
1 | 0:00.00 | 4:30.30 | 0 | 20279
2 | 4:30.30 | 5:41.65 | 20280 | 45919
3 | 10:12.20 | 5:02.40 | 45920 | 68609
4 | 15:14.60 | 3:57.12 | 68610 | 86396
5 | 19:11.72 | 3:40.70 | 86397 | 102966
6 | 22:52.67 | 4:59.48 | 102967 | 125439
7 | 27:52.40 | 5:06.00 | 125440 | 148389
8 | 32:58.40 | 2:49.22 | 148390 | 161086
9 | 35:47.62 | 4:22.03 | 161087 | 180739
10 | 40:09.65 | 3:11.52 | 180740 | 195116
11 | 43:21.42 | 4:58.15 | 195117 | 217481


Range status and errors

Selected range

Filename C:\mm\Neneh Cherry\1996 - Man [8419822]\Neneh Cherry - Man.wav

Peak level 100.0 %
Extraction speed 7.0 X
Range quality 100.0 %
Test CRC 4FC18245
Copy CRC 4FC18245
Copy OK

No errors occurred


AccurateRip summary

Track 1 accurately ripped (confidence 200) [0EBC198D] (AR v2)
Track 2 accurately ripped (confidence 200) [11C93E40] (AR v2)
Track 3 accurately ripped (confidence 200) [35C2AC5A] (AR v2)
Track 4 accurately ripped (confidence 200) [FF523A36] (AR v2)
Track 5 accurately ripped (confidence 200) [E7490D2B] (AR v2)
Track 6 accurately ripped (confidence 200) [D438B5D6] (AR v2)
Track 7 accurately ripped (confidence 200) [E58BBA01] (AR v2)
Track 8 accurately ripped (confidence 200) [FFCF9899] (AR v2)
Track 9 accurately ripped (confidence 200) [93CF1E21] (AR v2)
Track 10 accurately ripped (confidence 200) [317C0DF8] (AR v2)
Track 11 accurately ripped (confidence 200) [80AF459D] (AR v2)

All tracks accurately ripped

End of status report

---- CUETools DB Plugin V2.1.6

[CTDB TOCID: mRcVQPDdYMQKje2.MK5TKV6K2ts-] found
Submit result: mRcVQPDdYMQKje2.MK5TKV6K2ts- has been confirmed
Track | CTDB Status
1 | (777/791) Accurately ripped
2 | (777/791) Accurately ripped
3 | (777/791) Accurately ripped
4 | (777/791) Accurately ripped
5 | (776/791) Accurately ripped
6 | (776/791) Accurately ripped
7 | (777/791) Accurately ripped
8 | (776/791) Accurately ripped
9 | (777/791) Accurately ripped
10 | (775/791) Accurately ripped
11 | (776/791) Accurately ripped
[свернуть]

Файл CUE

REM GENRE "Alt. Rock"
REM DATE 1996
REM DISCID 880B530B
REM COMMENT "ExactAudioCopy v1.5"
PERFORMER "Neneh Cherry"
TITLE "Man"
REM COMPOSER ""
FILE "Neneh Cherry - Man.flac" WAVE
TRACK 01 AUDIO
TITLE "Woman"
PERFORMER "Neneh Cherry"
REM COMPOSER ""
INDEX 01 00:00:00
TRACK 02 AUDIO
TITLE "Feel It"
PERFORMER "Neneh Cherry"
REM COMPOSER ""
INDEX 00 04:30:27
INDEX 01 04:30:30
TRACK 03 AUDIO
TITLE "Hornbeam"
PERFORMER "Neneh Cherry"
REM COMPOSER ""
INDEX 00 10:12:17
INDEX 01 10:12:20
TRACK 04 AUDIO
TITLE "Trouble Man"
PERFORMER "Neneh Cherry"
REM COMPOSER ""
INDEX 00 15:14:57
INDEX 01 15:14:60
TRACK 05 AUDIO
TITLE "Golden Ring"
PERFORMER "Neneh Cherry"
REM COMPOSER ""
INDEX 00 19:11:70
INDEX 01 19:11:72
TRACK 06 AUDIO
TITLE "7 Seconds"
PERFORMER "Neneh Cherry"
REM COMPOSER ""
INDEX 00 22:52:65
INDEX 01 22:52:67
TRACK 07 AUDIO
TITLE "Kootchi"
PERFORMER "Neneh Cherry"
REM COMPOSER ""
INDEX 00 27:52:37
INDEX 01 27:52:40
TRACK 08 AUDIO
TITLE "Beastiality"
PERFORMER "Neneh Cherry"
REM COMPOSER ""
INDEX 00 32:58:37
INDEX 01 32:58:40
TRACK 09 AUDIO
TITLE "Carry Me"
PERFORMER "Neneh Cherry"
REM COMPOSER ""
INDEX 00 35:47:60
INDEX 01 35:47:62
TRACK 10 AUDIO
TITLE "Together Now"
PERFORMER "Neneh Cherry"
REM COMPOSER ""
INDEX 00 40:09:62
INDEX 01 40:09:65
TRACK 11 AUDIO
TITLE "Everything"
PERFORMER "Neneh Cherry"
REM COMPOSER ""
INDEX 00 43:21:40
INDEX 01 43:21:42
[свернуть]

Лог проверки качества

AUDIOCHECKER v2.0 beta (build 457) - by Dester - [Ссылки могут видеть только зарегистрированные и активированные пользователи.]
[Only registered and activated users can see links.]
~~~~~~~~~~~~~~~~~~~~~~~~~~~~~~~~~~
-=== НЕ РЕДАКТИРУЙТЕ ЭТОТ ФАЙЛ! ===-

Путь: ...\1996 - Man [8419822]

1 -=- Neneh Cherry - Man.flac -=- CDDA (100%)

113832404
----------------------
PERFORMER: auCDtect Task Manager, ver. 1.6.0 RC1 build 1.6.0.1
Copyright © 2008-2010 y-soft. All rights reserved
[Ссылки могут видеть только зарегистрированные и активированные пользователи.]
[Only registered and activated users can see links.]

ANALYZER: auCDtect: CD records authenticity detector, version 0.8.2
Copyright © 2004 Oleg Berngardt. All rights reserved.
Copyright © 2004 Alexander Djourik. All rights reserved.


FILE: Neneh Cherry - Man.flac
Size: 313804836 Hash: 90D6A0FA81CAEC06143F82518AE26B8E Accuracy: -m8
Conclusion: CDDA 100%
Signature: E463171A4552A3AF6D9051B438D0AE7AED1180A5
[свернуть]

Спектр частот

[свернуть]

Скачать Neneh Cherry - Man

[Ссылки могут видеть только зарегистрированные и активированные пользователи.]
[Only registered and activated users can see links.]

password: sergych
[свернуть]

Контрольная сумма (хеш-сумма) архива

MD5: e4e98955e654442f21104a2767ca0e43
[свернуть]
My opinion of release: 8/10
__________________
TAIFUN.Wings of Soul

Вверх
Пользователь сказал cпасибо:
TAIFUN (30.07.2020)
 
Похожие темы
Тема Автор Раздел Ответов Последнее сообщение
Релиз Cherry Flambé - Introducing ... PUPOKIN Pop Rock 0 18.08.2016 10:49
Альбом Big Jay Mcneely And Dana Gillespie - Cherry Pie igoryok63 Jazz и Blues 0 04.09.2015 02:41
Релиз Neneh Cherry & The Thing - The Cherry Thing PUPOKIN Jazz и Blues 0 21.06.2012 08:48
Релиз Frank Rodriguez - Super Cherry PUPOKIN House 0 28.04.2009 08:39
Alison Marks - Yellow Cherry DarkDan Techno 0 25.05.2008 10:01


Метки
1996 , alternative rock , man , neneh cherry , trip hop , worldbeat

Опции темы

Ваши права в разделе
Вы не можете создавать новые темы
Вы не можете отвечать в темах
Вы не можете прикреплять вложения
Вы не можете редактировать свои сообщения

Быстрый переход


Текущее время: 10:47. Часовой пояс GMT +3.

© 2008 - 2020 Taifun With Song
Powered by vBulletin® Version 3.8.10
Copyright ©2000 - 2020, vBulletin Solutions, Inc. Перевод: zCarot
При поддержке NIC.UA
Яндекс.Метрика