TAIFUN With Song - качественная и редкая музыка
Навигация
А знаете ли Вы, что...
Сколько аудиокассет производится в настоящее время в США?
«Фирма-производитель аудиокассет National Audio Company была открыта в 1969 году и осталась одной из немногих в США, кто сохранил оборудование после появления сначала компакт-дисков, а затем mp3. Сейчас она является лидером на этом рынке, производя более 10 миллионов кассет с записями в год. В 2015 году компания продала больше кассет, чем когда-либо в своей истории, поставляя их как для мэйджор-лейблов, так и для инди-групп. Президент компании объясняет этот успех ностальгией по аналоговым вещам, которые можно подержать в руках.»
 
Опции темы

  #1
Старый 20.03.2017, 18:46
sergych
Координатор
Досье
 
Аватар для sergych
FLAC Don Henley - The End Of The Innocence


1989 - Don Henley - The End Of The Innocence




Исполнитель/Artist: Don Henley
Альбом/Album: The End Of The Innocence
Год/Year: 1989
Жанр/Genre: Rock, hard rock, soft rock
Страна/Country: Соединённые Штаты
Рекорд-лейбл/Record label: Geffen Records
Номер в каталоге/Catalogue #: M2G 24217
Формат/Format: MPEG Layer-3 (*.mp3)
Качество/Quality: CBR 320 kbps
Тип рипа/RIP Type: image+.cue
Продолжительность/Length: 00:53:24
Источник/Source: Собственный рип
Размер/Size: 162.7 MB

Сканы в комплекте

Треклист

01. The End Of The Innocence [0:05:18.07]
02. How Bad Do You Want It? [0:03:48.03]
03. I Will Not Go Quietly [0:05:43.40]
04. The Last Worthless Evening [0:06:04.15]
05. New York Minute [0:06:37.62]
06. Shangri-La [0:04:57.23]
07. Little Tin God [0:04:43.70]
08. Gimme What You Got [0:06:13.65]
09. If Dirt Were Dollars [0:04:34.65]
10. The Heart Of The Matter [0:05:22.37]
[свернуть]

Исполнители/Performers

Don Henley – drums, vocals, background vocals, harmony vocals
Timothy Drury – keyboards, background vocals, harmony vocals
Edie Brickell – background vocals, harmony vocals (on "Gimme What You Got")
Mike Campbell – guitar, keyboards (on "The Last Worthless Evening" and "The Heart of the Matter")
Valerie Carter – background vocals, harmony vocals (on "How Bad Do You Want It?")
John Corey – guitar, keyboards (on "The Last Worthless Evening")
Sheryl Crow – background vocals (on "If Dirt Were Dollars")
Charley Drayton – background vocals, harmony vocals (on "Shangri-La")
Melissa Etheridge – background vocals, harmony vocals (on "Gimme What You Got")
Michael G. Fisher – percussion (on "The End of the Innocence")
Bob Glaub – bass (on "The Last Worthless Evening")
Bruce Hornsby – piano, keyboards (on "The End of the Innocence")
Stanley Jordan – guitar, drums, background vocals, harmony vocals
Steve Jordan – drums, electric guitar, background vocals, harmony vocals, wah wah guitar (on "Shangri-La")
Jim Keltner – percussion, drums (on "Shangri-La")
Larry Klein – bass (on "The Heart of the Matter")
Danny "Kootch" Kortchmar – guitar, keyboards
Stan Lynch – percussion, drums
Steve Madaio – trumpet (on "New York Minute")
Ivan Neville – background vocals, harmony vocals (on "Shangri-La")
David Paich – piano, strings, keyboards (on "New York Minute" and "Little Tin God")
Pino Palladino – bass (on "New York Minute," "Shangri-La," and "Little Tin God")
Jeff Porcaro – drums (on "New York Minute")
Axl Rose – background vocals, harmony vocals (on "I Will Not Go Quietly")
Wayne Shorter – soprano saxophone (on "The End of the Innocence")
Patty Smyth – background vocals, harmony vocals (on "How Bad Do You Want It?")
J.D. Souther – background vocals (on "If Dirt Were Dollars")
Take 6 – background vocals, harmony vocals (on "Shangri-La")
Carmen Twillie – background vocals, harmony vocals (on "The Heart of the Matter")
Waddy Wachtel – acoustic guitar (on "I Will Not Go Quietly")
Julia Waters – background vocals, harmony vocals (on "The Heart of the Matter")
Maxine Waters – background vocals, harmony vocals (on "The Heart of the Matter")
Jai Winding – keyboards, keyboard bass (on "The End of the Innocence," "New York Minute," and "Shangri-La")
[свернуть]

Файл CUE

TITLE "The End Of The Innocence"
PERFORMER "Don Henley"
REM GENRE "Rock"
REM DATE "1989"
REM DISCNUMBER "1/1"
FILE "Don Henley - The End Of The Innocence.mp3" MP3
TRACK 01 AUDIO
INDEX 01 00:00:00
TITLE "The End Of The Innocence"
REM COMMENT "ExactAudioCopy v1.3"
REM COMPOSER ""
TRACK 02 AUDIO
INDEX 01 05:18:07
TITLE "How Bad Do You Want It?"
REM COMMENT "ExactAudioCopy v1.3"
REM COMPOSER ""
TRACK 03 AUDIO
INDEX 01 09:06:09
TITLE "I Will Not Go Quietly"
REM COMMENT "ExactAudioCopy v1.3"
REM COMPOSER ""
TRACK 04 AUDIO
INDEX 01 14:49:49
TITLE "The Last Worthless Evening"
REM COMMENT "ExactAudioCopy v1.3"
REM COMPOSER ""
TRACK 05 AUDIO
INDEX 01 20:53:65
TITLE "New York Minute"
REM COMMENT "ExactAudioCopy v1.3"
REM COMPOSER ""
TRACK 06 AUDIO
INDEX 01 27:31:52
TITLE "Shangri-La"
REM COMMENT "ExactAudioCopy v1.3"
REM COMPOSER ""
TRACK 07 AUDIO
INDEX 01 32:29:00
TITLE "Little Tin God"
REM COMMENT "ExactAudioCopy v1.3"
REM COMPOSER ""
TRACK 08 AUDIO
INDEX 01 37:12:70
TITLE "Gimme What You Got"
REM COMMENT "ExactAudioCopy v1.3"
REM COMPOSER ""
TRACK 09 AUDIO
INDEX 01 43:26:60
TITLE "If Dirt Were Dollars"
REM COMMENT "ExactAudioCopy v1.3"
REM COMPOSER ""
TRACK 10 AUDIO
INDEX 01 48:01:49
TITLE "The Heart Of The Matter"
REM COMMENT "ExactAudioCopy v1.3"
REM COMPOSER ""
[свернуть]

Скачать Don Henley - The End Of The Innocence

[Ссылки могут видеть только зарегистрированные и активированные пользователи.]
[Only registered and activated users can see links.]

password: sergych
[свернуть]

Контрольная сумма (хеш-сумма) архива

MD5: ba27a15c64a1ede4a420ed87b05f6ced
[свернуть]
My opinion of release: 10/10

Release info RInfo

3-й сольник вокалиста и барабанщика группы Eagles.

Увы, но царапины в районе последнего трека не позволяют сойтись контрольной сумме рипа диска и, соответственно, релиз только в mp3
__________________
TAIFUN.Wings of Soul

Вверх
Пользователь сказал cпасибо:
swint68 (20.03.2017)
 
  #2
Старый 28.07.2020, 02:28
sergych
Координатор
Досье
 
Аватар для sergych
FLAC Re: Don Henley - The End Of The Innocence


1989 - Don Henley - The End Of The Innocence




Исполнитель/Artist: Don Henley
Альбом/Album: The End Of The Innocence
Год/Year: 1989
Жанр/Genre: Rock, country rock
Страна/Country: Германия
Рекорд-лейбл/Record label: Geffen Records
Номер в каталоге/Catalogue #: GED 24217 / GEFD 24217 / 424 217-2
Формат/Format: Free Lossless Audio Codec (*.flac)
Качество/Quality: Lossless
Тип рипа/RIP Type: image+.cue
Продолжительность/Length: 00:53:23
Источник/Source: Собственный рип
Размер/Size: 356.2 MB

Сканы в комплекте

Треклист

01. The End Of The Innocence [0:05:18.20]
02. How Bad Do You Want It? [0:03:47.68]
03. I Will Not Go Quietly [0:05:43.55]
04. The Last Worthless Evening [0:06:04.10]
05. New York Minute [0:06:36.10]
06. Shangri-La [0:04:57.22]
07. Little Tin God [0:04:43.60]
08. Gimme What You Got [0:06:14.00]
09. If Dirt Were Dollars [0:04:34.65]
10. The Heart Of The Matter [0:05:22.45]
[свернуть]

Превью на YouTube

[свернуть]

Исполнители/Performers

Don Henley – drums, vocals, background vocals, harmony vocals
Timothy Drury – keyboards, background vocals, harmony vocals
Edie Brickell – background vocals, harmony vocals (on "Gimme What You Got")
Mike Campbell – guitar, keyboards (on "The Last Worthless Evening" and "The Heart of the Matter")
Valerie Carter – background vocals, harmony vocals (on "How Bad Do You Want It?")
John Corey – guitar, keyboards (on "The Last Worthless Evening")
Sheryl Crow – background vocals (on "If Dirt Were Dollars")
Charley Drayton – background vocals, harmony vocals (on "Shangri-La")
Melissa Etheridge – background vocals, harmony vocals (on "Gimme What You Got")
Michael G. Fisher – percussion (on "The End of the Innocence")
Bob Glaub – bass (on "The Last Worthless Evening")
Bruce Hornsby – piano, keyboards (on "The End of the Innocence")
Stanley Jordan – guitar, drums, background vocals, harmony vocals
Steve Jordan – drums, electric guitar, background vocals, harmony vocals, wah wah guitar (on "Shangri-La")
Jim Keltner – percussion, drums (on "Shangri-La")
Larry Klein – bass (on "The Heart of the Matter")
Danny "Kootch" Kortchmar – guitar, keyboards
Stan Lynch – percussion, drums
Steve Madaio – trumpet (on "New York Minute")
Ivan Neville – background vocals, harmony vocals (on "Shangri-La")
David Paich – piano, strings, keyboards (on "New York Minute" and "Little Tin God")
Pino Palladino – bass (on "New York Minute," "Shangri-La," and "Little Tin God")
Jeff Porcaro – drums (on "New York Minute")
Axl Rose – background vocals, harmony vocals (on "I Will Not Go Quietly")
Wayne Shorter – soprano saxophone (on "The End of the Innocence")
Patty Smyth – background vocals, harmony vocals (on "How Bad Do You Want It?")
J.D. Souther – background vocals (on "If Dirt Were Dollars")
Take 6 – background vocals, harmony vocals (on "Shangri-La")
Carmen Twillie – background vocals, harmony vocals (on "The Heart of the Matter")
Waddy Wachtel – acoustic guitar (on "I Will Not Go Quietly")
Julia Waters – background vocals, harmony vocals (on "The Heart of the Matter")
Maxine Waters – background vocals, harmony vocals (on "The Heart of the Matter")
Jai Winding – keyboards, keyboard bass (on "The End of the Innocence," "New York Minute," and "Shangri-La")
[свернуть]

EAC лог

Exact Audio Copy V1.5 from 20. February 2020

EAC extraction logfile from 18. July 2020, 1:37

Don Henley / The End Of The Innocence

Used drive : PIONEER DVD-RW DVR-220L Adapter: 1 ID: 0

Read mode : Secure
Utilize accurate stream : Yes
Defeat audio cache : Yes
Make use of C2 pointers : No

Read offset correction : 6
Overread into Lead-In and Lead-Out : No
Fill up missing offset samples with silence : Yes
Delete leading and trailing silent blocks : No
Null samples used in CRC calculations : Yes
Used interface : Installed external ASPI interface

Used output format : User Defined Encoder
Selected bitrate : 1024 kBit/s
Quality : High
Add ID3 tag : No
Command line compressor : C:\Program Files (x86)\Exact Audio Copy\Flac\flac.exe
Additional command line options : -6 -V -T "ARTIST=%artist%" -T "TITLE=%title%" -T "ALBUM=%albumtitle%" -T "DATE=%year%" -T "TRACKNUMBER=%tracknr%" -T "GENRE=%genre%" -T "COMMENT=%comment%" -T "BAND=%albuminterpret%" -T "ALBUMARTIST=%albuminterpret%" -T "COMPOSER=%composer%" %haslyrics%--tag-from-file=LYRICS="%lyricsfile%"%haslyrics% -T "DISCNUMBER=%cdnumber%" -T "TOTALDISCS=%totalcds%" -T "TOTALTRACKS=%numtracks%" %hascover%--picture="%coverfile%"%hascover% %source% -o %dest%


TOC of the extracted CD

Track | Start | Length | Start sector | End sector
---------------------------------------------------------
1 | 0:00.32 | 5:18.20 | 32 | 23901
2 | 5:18.52 | 3:47.68 | 23902 | 40994
3 | 9:06.45 | 5:43.55 | 40995 | 66774
4 | 14:50.25 | 6:04.10 | 66775 | 94084
5 | 20:54.35 | 6:36.10 | 94085 | 123794
6 | 27:30.45 | 4:57.22 | 123795 | 146091
7 | 32:27.67 | 4:43.60 | 146092 | 167376
8 | 37:11.52 | 6:14.00 | 167377 | 195426
9 | 43:25.52 | 4:34.65 | 195427 | 216041
10 | 48:00.42 | 5:22.45 | 216042 | 240236


Range status and errors

Selected range

Filename C:\mm\Don Henley\1989 - The End Of The Innocence [GED 24217 _ GEFD 24217]\Don Henley - The End Of The Innocence.wav

Peak level 100.0 %
Extraction speed 7.0 X
Range quality 99.9 %
Test CRC 247ED7BC
Copy CRC 247ED7BC
Copy OK

No errors occurred


AccurateRip summary

Track 1 cannot be verified as accurate (confidence 21) [7BC33ADA], AccurateRip returned [5020715A] (AR v2)
Track 2 cannot be verified as accurate (confidence 21) [5156D6B4], AccurateRip returned [7C441220] (AR v2)
Track 3 cannot be verified as accurate (confidence 21) [C6995D6C], AccurateRip returned [3E039A8D] (AR v2)
Track 4 cannot be verified as accurate (confidence 21) [529324D3], AccurateRip returned [72D8D11A] (AR v2)
Track 5 cannot be verified as accurate (confidence 21) [543D058E], AccurateRip returned [40013A5E] (AR v2)
Track 6 cannot be verified as accurate (confidence 21) [C67D70D8], AccurateRip returned [BFC35C22] (AR v2)
Track 7 cannot be verified as accurate (confidence 21) [93C00B79], AccurateRip returned [A2D67958] (AR v2)
Track 8 cannot be verified as accurate (confidence 21) [94B2E9BC], AccurateRip returned [AAED8844] (AR v2)
Track 9 cannot be verified as accurate (confidence 21) [DD5F5610], AccurateRip returned [095FE334] (AR v2)
Track 10 cannot be verified as accurate (confidence 21) [1D053D24], AccurateRip returned [8D9B92CC] (AR v2)

No tracks could be verified as accurate
You may have a different pressing from the one(s) in the database

End of status report

---- CUETools DB Plugin V2.1.6

[CTDB TOCID: Tq9Qvo4KA1BYjCqn6utIYh1cghg-] found
Submit result: Tq9Qvo4KA1BYjCqn6utIYh1cghg- has been confirmed
Track | CTDB Status
1 | (49/70) Accurately ripped
2 | (49/70) Accurately ripped
3 | (49/70) Accurately ripped
4 | (49/70) Accurately ripped
5 | (49/70) Accurately ripped
6 | (49/70) Accurately ripped
7 | (49/70) Accurately ripped
8 | (49/70) Accurately ripped
9 | (49/70) Accurately ripped
10 | (48/70) Accurately ripped
[свернуть]

Файл CUE

REM DATE 1989
REM DISCID 8B0C830A
REM COMMENT "ExactAudioCopy v1.5"
PERFORMER "Don Henley"
TITLE "The End Of The Innocence"
REM COMPOSER ""
FILE "Don Henley - The End Of The Innocence.flac" WAVE
TRACK 01 AUDIO
TITLE "The End Of The Innocence"
PERFORMER "Don Henley"
REM COMPOSER ""
INDEX 00 00:00:00
INDEX 01 00:00:32
TRACK 02 AUDIO
TITLE "How Bad Do You Want It?"
PERFORMER "Don Henley"
REM COMPOSER ""
INDEX 00 05:15:55
INDEX 01 05:18:52
TRACK 03 AUDIO
TITLE "I Will Not Go Quietly"
PERFORMER "Don Henley"
REM COMPOSER ""
INDEX 00 09:05:00
INDEX 01 09:06:45
TRACK 04 AUDIO
TITLE "The Last Worthless Evening"
PERFORMER "Don Henley"
REM COMPOSER ""
INDEX 00 14:48:70
INDEX 01 14:50:25
TRACK 05 AUDIO
TITLE "New York Minute"
PERFORMER "Don Henley"
REM COMPOSER ""
INDEX 00 20:52:60
INDEX 01 20:54:35
TRACK 06 AUDIO
TITLE "Shangri-La"
PERFORMER "Don Henley"
REM COMPOSER ""
INDEX 00 27:29:65
INDEX 01 27:30:45
TRACK 07 AUDIO
TITLE "Little Tin God"
PERFORMER "Don Henley"
REM COMPOSER ""
INDEX 00 32:26:35
INDEX 01 32:27:67
TRACK 08 AUDIO
TITLE "Gimme What You Got"
PERFORMER "Don Henley"
REM COMPOSER ""
INDEX 00 37:09:32
INDEX 01 37:11:52
TRACK 09 AUDIO
TITLE "If Dirt Were Dollars"
PERFORMER "Don Henley"
REM COMPOSER ""
INDEX 00 43:24:22
INDEX 01 43:25:52
TRACK 10 AUDIO
TITLE "The Heart Of The Matter"
PERFORMER "Don Henley"
REM COMPOSER ""
INDEX 00 47:58:32
INDEX 01 48:00:42
[свернуть]

Лог проверки качества

AUDIOCHECKER v2.0 beta (build 457) - by Dester - [Ссылки могут видеть только зарегистрированные и активированные пользователи.]
[Only registered and activated users can see links.]
~~~~~~~~~~~~~~~~~~~~~~~~~~~~~~~~~~
-=== НЕ РЕДАКТИРУЙТЕ ЭТОТ ФАЙЛ! ===-

Путь: ...\1989 - The End Of The Innocence [GED 24217 _ GEFD 24217]

1 -=- Don Henley - The End Of The Innocence.flac -=- CDDA (99%)

213153860
----------------

PERFORMER: auCDtect Task Manager, ver. 1.6.0 RC1 build 1.6.0.1
Copyright © 2008-2010 y-soft. All rights reserved
[Ссылки могут видеть только зарегистрированные и активированные пользователи.]
[Only registered and activated users can see links.]

ANALYZER: auCDtect: CD records authenticity detector, version 0.8.2
Copyright © 2004 Oleg Berngardt. All rights reserved.
Copyright © 2004 Alexander Djourik. All rights reserved.


FILE: Don Henley - The End Of The Innocence.flac
Size: 350197478 Hash: 9BA599C3B4EE6A2DA8DFEE77B8EEF783 Accuracy: -m8
Conclusion: CDDA 100%
Signature: B05B4619D637ABEF173797EA89177F397EB4C9F3
[свернуть]

Спектр частот

[свернуть]

Скачать Don Henley - The End Of The Innocence

[Ссылки могут видеть только зарегистрированные и активированные пользователи.]
[Only registered and activated users can see links.]

password: sergych
[свернуть]

Контрольная сумма (хеш-сумма) архива

MD5: 9a656df15d045a638096340d1efde70a
[свернуть]
My opinion of release: 10/10
__________________
TAIFUN.Wings of Soul

Вверх
Пользователь сказал cпасибо:
burnett_s (01.08.2020)
Похожие темы
Тема Автор Раздел Ответов Последнее сообщение
Альбом Don Henley - Cass County sergych Rock 0 12.04.2017 20:21
Релиз Mandrake - Innocence Weakness PUPOKIN Gothic Metal 0 07.09.2010 10:06
Сборник Best of Hearts of Space - No. 3 Innocence PUPOKIN New age 0 12.03.2010 09:06


Метки
1989 , don henley , hard rock , rock , soft rock , the end of the innocence

Опции темы

Ваши права в разделе
Вы не можете создавать новые темы
Вы не можете отвечать в темах
Вы не можете прикреплять вложения
Вы не можете редактировать свои сообщения

Быстрый переход


Текущее время: 10:22. Часовой пояс GMT +3.

© 2008 - 2020 Taifun With Song
Powered by vBulletin® Version 3.8.10
Copyright ©2000 - 2020, vBulletin Solutions, Inc. Перевод: zCarot
При поддержке NIC.UA
Яндекс.Метрика