TAIFUN With Song - качественная и редкая музыка
Навигация
Heavy Metal Выражение "Heavy Metall" впервые появилось в романе известного американского писателя Уильяма Берроуза "Naked Lunch" (1959), где он использует этот термин для описания резкой, непривычной музыки. Элемент импровизации в истинном "металле" практически сведен к нулю, точнее - он отсутствует в традиционном смысле этого слова, однако опытные "металлические" группы (Metallica, Slayer, Megadeth) часто вводят в свои композиции очень сложные изменения ритма, и у неподготовленного слушателя может возникнуть ощущение какофонии, хотя речь идет о ритмической импровизации, по духу очень близкой той, которую исследуют серьезные современные композиторы.

А знаете ли Вы, что...
Каким образом Эдит Пиаф помогала бежать из немецких лагерей французским военнопленным?
«Французская певица Эдит Пиаф в период оккупации выступала в лагерях для военнопленных на территории Германии, после которых фотографировалась на память с ними и немецкими офицерами. Затем в Париже лица военнопленных вырезали и вклеивали в фальшивые документы. Пиаф ехала в лагерь с повторным визитом и тайно провозила эти паспорта, с которыми некоторым пленным удавалось бежать.»
 
Опции темы

  #1
Старый 01.02.2021, 07:31
swint68
Релизёр
Досье
 
Аватар для swint68
FLAC Accept - Too Mean To Die


2021 - Accept - Too Mean To Die




Исполнитель/Artist: Accept
Альбом/Album: Too Mean To Die
Год/Year: 2021
Жанр/Genre: Heavy Metal, Hard Rock
Страна/Country: Германия
Рекорд-лейбл/Record label: Nuclear Blast GmbH.
Номер в каталоге/Catalogue #: NB 5541-2
Формат/Format: Free Lossless Audio Codec (*.flac)
Качество/Quality: Lossless
Тип рипа/RIP Type: image+.cue
Продолжительность/Length: 00:52:15
Источник/Source: JarpoMarx
Размер/Size: 458 MB

Сканы в комплекте

Треклист

01. Zombie Apocalypse
02. Too Mean To Die
03. Overnight Sensation
04. No Ones Master
05. The Undertaker
06. Sucks To Be You
07. Symphony Of Pain
08. The Best Is Yet To Come
09. How Do We Sleep
10. Not My Problem
11. Samson and Delilah (Instrumental)
[свернуть]

Превью на YouTube

[свернуть]

EAC лог

Exact Audio Copy V1.3 from 2. September 2016

EAC extraction logfile from 31. January 2021, 16:24

Accept / Too Mean to Die

Used drive : ASUS DRW-24D5MT Adapter: 1 ID: 0

Read mode : Secure
Utilize accurate stream : Yes
Defeat audio cache : Yes
Make use of C2 pointers : No

Read offset correction : 6
Overread into Lead-In and Lead-Out : No
Fill up missing offset samples with silence : Yes
Delete leading and trailing silent blocks : No
Null samples used in CRC calculations : Yes
Used interface : Native Win32 interface for Win NT & 2000

Used output format : User Defined Encoder
Selected bitrate : 768 kBit/s
Quality : High
Add ID3 tag : No
Command line compressor : C:\Program Files (x86)\Exact Audio Copy\FLAC\FLAC.EXE
Additional command line options : -6 -V -T "ARTIST=%artist%" -T "TITLE=%title%" -T "ALBUM=%albumtitle%" -T "DATE=%year%" -T "TRACKNUMBER=%tracknr%" -T "GENRE=%genre%" -T "COMMENT=%comment%" -T "BAND=%albuminterpret%" -T "ALBUMARTIST=%albuminterpret%" -T "COMPOSER=%composer%" %haslyrics%--tag-from-file=LYRICS="%lyricsfile%"%haslyrics% -T "DISCNUMBER=%cdnumber%" -T "TOTALDISCS=%totalcds%" -T "TOTALTRACKS=%numtracks%" %hascover%--picture="%coverfile%"%hascover% %source% -o %dest%


TOC of the extracted CD

Track | Start | Length | Start sector | End sector
---------------------------------------------------------
1 | 0:00.00 | 5:35.27 | 0 | 25151
2 | 5:35.27 | 4:21.23 | 25152 | 44749
3 | 9:56.50 | 4:24.27 | 44750 | 64576
4 | 14:21.02 | 4:10.31 | 64577 | 83357
5 | 18:31.33 | 5:37.40 | 83358 | 108672
6 | 24:08.73 | 4:05.32 | 108673 | 127079
7 | 28:14.30 | 4:39.31 | 127080 | 148035
8 | 32:53.61 | 4:47.35 | 148036 | 169595
9 | 37:41.21 | 5:41.34 | 169596 | 195204
10 | 43:22.55 | 4:21.71 | 195205 | 214850
11 | 47:44.51 | 4:31.10 | 214851 | 235185


Range status and errors

Selected range

Filename E:\Música\EAC\Accept\Accept - Too Mean to Die.wav

Peak level 98.8 %
Extraction speed 7.0 X
Range quality 100.0 %
Test CRC 6EE3EDB1
Copy CRC 6EE3EDB1
Copy OK

No errors occurred


AccurateRip summary

Track 1 not present in database
Track 2 not present in database
Track 3 not present in database
Track 4 not present in database
Track 5 not present in database
Track 6 not present in database
Track 7 not present in database
Track 8 not present in database
Track 9 not present in database
Track 10 not present in database
Track 11 not present in database

None of the tracks are present in the AccurateRip database

End of status report

---- CUETools DB Plugin V2.1.6

[CTDB TOCID: b4fEIpcdjB3rXNz67uNwfPmu154-] found
Submit result: b4fEIpcdjB3rXNz67uNwfPmu154- has been confirmed
Track | CTDB Status
1 | (45/46) Accurately ripped
2 | (45/46) Accurately ripped
3 | (45/46) Accurately ripped
4 | (45/46) Accurately ripped
5 | (45/46) Accurately ripped
6 | (45/46) Accurately ripped
7 | (45/46) Accurately ripped
8 | (45/46) Accurately ripped
9 | (45/46) Accurately ripped
10 | (45/46) Accurately ripped
11 | (44/46) Accurately ripped


==== Log checksum C24E34F68FD9F7920AB8A650497D90FC58F31DBFA4AAD9353726CAE1ED2ED76E ====
[свернуть]

Файл CUE

REM GENRE "Heavy Metal"
REM DATE 2021
REM DISCID A10C3F0B
REM COMMENT "ExactAudioCopy v1.3"
PERFORMER "Accept"
TITLE "Too Mean to Die"
REM COMPOSER ""
FILE "Accept - Too Mean to Die.flac" WAVE
TRACK 01 AUDIO
TITLE "Zombie Apocalypse"
PERFORMER "Accept"
REM COMPOSER ""
INDEX 01 00:00:00
TRACK 02 AUDIO
TITLE "Too Mean to Die"
PERFORMER "Accept"
REM COMPOSER ""
INDEX 01 05:35:27
TRACK 03 AUDIO
TITLE "Overnight Sensation"
PERFORMER "Accept"
REM COMPOSER ""
INDEX 01 09:56:50
TRACK 04 AUDIO
TITLE "No Ones Master"
PERFORMER "Accept"
REM COMPOSER ""
INDEX 01 14:21:02
TRACK 05 AUDIO
TITLE "The Undertaker"
PERFORMER "Accept"
REM COMPOSER ""
INDEX 01 18:31:33
TRACK 06 AUDIO
TITLE "Sucks to Be You"
PERFORMER "Accept"
REM COMPOSER ""
INDEX 01 24:08:73
TRACK 07 AUDIO
TITLE "Symphony of Pain"
PERFORMER "Accept"
REM COMPOSER ""
INDEX 01 28:14:30
TRACK 08 AUDIO
TITLE "The Best Is Yet to Come"
PERFORMER "Accept"
REM COMPOSER ""
INDEX 01 32:53:61
TRACK 09 AUDIO
TITLE "How Do We Sleep"
PERFORMER "Accept"
REM COMPOSER ""
INDEX 01 37:41:21
TRACK 10 AUDIO
TITLE "Not My Problem"
PERFORMER "Accept"
REM COMPOSER ""
INDEX 01 43:22:55
TRACK 11 AUDIO
TITLE "Samson and Delilah"
PERFORMER "Accept"
REM COMPOSER ""
INDEX 01 47:44:51
[свернуть]

Лог проверки качества

-----------------------

DON'T MODIFY THIS FILE

-----------------------

PERFORMER: auCDtect Task Manager, ver. 1.6.0 RC1 build 1.6.0.1
Copyright © 2008-2010 y-soft. All rights reserved
[Ссылки могут видеть только зарегистрированные и активированные пользователи.]
[Only registered and activated users can see links.]

ANALYZER: auCDtect: CD records authenticity detector, version 0.8.2
Copyright © 2004 Oleg Berngardt. All rights reserved.
Copyright © 2004 Alexander Djourik. All rights reserved.


FILE: Accept - Too Mean to Die.flac
Size: 399620438 Hash: 2C288ADB44BA4C7A62EC993CBF9FA88E Accuracy: -m0
Conclusion: CDDA 100%
Signature: 121992492947DB19857DB73095CF81D197203C06
[свернуть]

Скачать Accept - Too Mean To Die

[Ссылки могут видеть только зарегистрированные и активированные пользователи.]
[Only registered and activated users can see links.]
[свернуть]

Вверх
2 пользователя(ей) сказали cпасибо:
sergych (04.02.2021), TAIFUN (01.02.2021)
 
Похожие темы
Тема Автор Раздел Ответов Последнее сообщение
Релиз Accept - Stalingrad PUPOKIN Heavy Metal 0 28.03.2012 10:20
Релиз Accept - Blood Of The Nations PUPOKIN Heavy Metal 0 20.08.2010 10:37
Accept - Bestseller Alex_vn69 Heavy Metal 0 06.05.2008 19:42


Метки
2021 , accept , hard rock , heavy metal , too mean to die

Опции темы

Ваши права в разделе
Вы не можете создавать новые темы
Вы не можете отвечать в темах
Вы не можете прикреплять вложения
Вы не можете редактировать свои сообщения

Быстрый переход


Текущее время: 13:04. Часовой пояс GMT +3.

© 2008 - 2020 Taifun With Song
Powered by vBulletin® Version 3.8.10
Copyright ©2000 - 2021, vBulletin Solutions, Inc. Перевод: zCarot
При поддержке NIC.UA
Яндекс.Метрика