TAIFUN With Song - качественная и редкая музыка
Навигация
Heavy Metal Выражение "Heavy Metall" впервые появилось в романе известного американского писателя Уильяма Берроуза "Naked Lunch" (1959), где он использует этот термин для описания резкой, непривычной музыки. Элемент импровизации в истинном "металле" практически сведен к нулю, точнее - он отсутствует в традиционном смысле этого слова, однако опытные "металлические" группы (Metallica, Slayer, Megadeth) часто вводят в свои композиции очень сложные изменения ритма, и у неподготовленного слушателя может возникнуть ощущение какофонии, хотя речь идет о ритмической импровизации, по духу очень близкой той, которую исследуют серьезные современные композиторы.

А знаете ли Вы, что...
Какой знаменитый музыкант играл в метро, и люди почти не проявили интерес к его музыке?
«Один из лучших скрипачей американец Джошуа Белл 12 января 2007 года согласился принять участие в эксперименте — утром на протяжении 45 минут он играл в вестибюле станции метро под видом обычного уличного музыканта. Из тысячи прошедших мимо людей только семь заинтересовались музыкой.»
 
Опции темы

  #1
Старый 13.01.2021, 19:10
swint68
Релизёр
Досье
 
Аватар для swint68
По умолчанию Lordi - Killection: A Fictional Compilation Album


2020 - Lordi - Killection: A Fictional Compilation Album




Исполнитель/Artist: Lordi
Альбом/Album: Killection: A Fictional Compilation Album
Год/Year: 2020
Жанр/Genre: Heavy Metal, Hard Rock
Страна/Country: Германия
Рекорд-лейбл/Record label: AFM Records
Номер в каталоге/Catalogue #: AFM 732-9
Формат/Format: Free Lossless Audio Codec (*.flac)
Качество/Quality: Lossless
Тип рипа/RIP Type: image+.cue
Продолжительность/Length: 00:52:40
Источник/Source: Ilijan
Размер/Size: 467 MB

Сканы в комплекте

Треклист

01. Radio SCG 10
02. Horror For Hire
03. Shake The Baby Silent
04. Like A Bee To The Honey (feat. Michael Monroe)
05. Apollyon
06. Scg10 The Last Hour
07. Blow My Fuse
08. I Dug A Hole In The Yard For You
09. Zombimbo
10. Up To No Good
11. Scg10 Demonic Semitones
12. Cutterfly
13. Evil
14. Scream Demon
15. Scg10 I Am Here
[свернуть]

Превью на YouTube

[свернуть]

EAC лог

Exact Audio Copy V1.4 from 3. February 2020

EAC extraction logfile from 11. March 2020, 23:00

Lordi / Killection

Used drive : ATAPI iHAS124 F Adapter: 1 ID: 1

Read mode : Secure
Utilize accurate stream : Yes
Defeat audio cache : Yes
Make use of C2 pointers : No

Read offset correction : 6
Overread into Lead-In and Lead-Out : No
Fill up missing offset samples with silence : Yes
Delete leading and trailing silent blocks : No
Null samples used in CRC calculations : Yes
Used interface : Native Win32 interface for Win NT & 2000

Used output format : User Defined Encoder
Selected bitrate : 1024 kBit/s
Quality : High
Add ID3 tag : No
Command line compressor : C:\Program Files\Exact Audio Copy\Flac\flac.exe
Additional command line options : -V -8 -T "Date=%year%" -T "Genre=%genre%" -T"COMMENT=Ripped by Ilijan [MeTaLMaDNeSS.TeaM]" -8 -V %source%


TOC of the extracted CD

Track | Start | Length | Start sector | End sector
---------------------------------------------------------
1 | 0:00.00 | 1:25.54 | 0 | 6428
2 | 1:25.54 | 3:22.43 | 6429 | 21621
3 | 4:48.22 | 3:36.35 | 21622 | 37856
4 | 8:24.57 | 4:13.46 | 37857 | 56877
5 | 12:38.28 | 5:11.06 | 56878 | 80208
6 | 17:49.34 | 1:31.00 | 80209 | 87033
7 | 19:20.34 | 3:31.27 | 87034 | 102885
8 | 22:51.61 | 4:11.17 | 102886 | 121727
9 | 27:03.03 | 4:53.69 | 121728 | 143771
10 | 31:56.72 | 3:58.60 | 143772 | 161681
11 | 35:55.57 | 1:20.32 | 161682 | 167713
12 | 37:16.14 | 4:20.31 | 167714 | 187244
13 | 41:36.45 | 4:34.27 | 187245 | 207821
14 | 46:10.72 | 4:38.02 | 207822 | 228673
15 | 50:48.74 | 1:51.17 | 228674 | 237015


Range status and errors

Selected range

Filename D:\Vknish+g.y.m.+angelito (a.k.a. deminbek)=3.14дарасы (Upload On Rutracker, DIE!!!)\Lordi - Killection.wav

Peak level 100.0 %
Extraction speed 8.0 X
Range quality 100.0 %
Test CRC 78BC7B98
Copy CRC 78BC7B98
Copy OK

No errors occurred


AccurateRip summary

Track 1 not present in database
Track 2 not present in database
Track 3 not present in database
Track 4 not present in database
Track 5 not present in database
Track 6 not present in database
Track 7 not present in database
Track 8 not present in database
Track 9 not present in database
Track 10 not present in database
Track 11 not present in database
Track 12 not present in database
Track 13 not present in database
Track 14 not present in database
Track 15 not present in database

None of the tracks are present in the AccurateRip database

End of status report

---- CUETools DB Plugin V2.1.6

[CTDB TOCID: jwyjf33O5n40WhtrAUhO8alW414-] found
Submit result: jwyjf33O5n40WhtrAUhO8alW414- has been confirmed
Track | CTDB Status
1 | (13/13) Accurately ripped
2 | (13/13) Accurately ripped
3 | (13/13) Accurately ripped
4 | (13/13) Accurately ripped
5 | (13/13) Accurately ripped
6 | (13/13) Accurately ripped
7 | (13/13) Accurately ripped
8 | (13/13) Accurately ripped
9 | (13/13) Accurately ripped
10 | (13/13) Accurately ripped
11 | (13/13) Accurately ripped
12 | (13/13) Accurately ripped
13 | (13/13) Accurately ripped
14 | (13/13) Accurately ripped
15 | (13/13) Accurately ripped


==== Log checksum A0EA39807BAEB913A7A4926C132682F9AE042718B7F156F0811B1DF81562D77A ====
[свернуть]

Файл CUE

REM GENRE "Heavy Metal"
REM DATE 2020
REM DISCID C50C580F
REM COMMENT "ExactAudioCopy v1.4"
PERFORMER "Lordi"
TITLE "Killection"
FILE "Lordi - Killection.flac" WAVE
TRACK 01 AUDIO
TITLE "Radio SCG10"
PERFORMER "Lordi"
INDEX 01 00:00:00
TRACK 02 AUDIO
TITLE "Horror For Hire"
PERFORMER "Lordi"
INDEX 01 01:25:54
TRACK 03 AUDIO
TITLE "Shake The Baby Silent"
PERFORMER "Lordi"
INDEX 01 04:48:22
TRACK 04 AUDIO
TITLE "Like A Bee To The Honey (feat. Michael Monroe)"
PERFORMER "Lordi"
INDEX 01 08:24:57
TRACK 05 AUDIO
TITLE "Apollyon"
PERFORMER "Lordi"
INDEX 01 12:38:28
TRACK 06 AUDIO
TITLE "SCG10: The Last Hour"
PERFORMER "Lordi"
INDEX 01 17:49:34
TRACK 07 AUDIO
TITLE "Blow My Fuse"
PERFORMER "Lordi"
INDEX 01 19:20:34
TRACK 08 AUDIO
TITLE "I Dug A Hole In The Yard For You"
PERFORMER "Lordi"
INDEX 01 22:51:61
TRACK 09 AUDIO
TITLE "Zombimbo"
PERFORMER "Lordi"
INDEX 01 27:03:03
TRACK 10 AUDIO
TITLE "Up To No Good"
PERFORMER "Lordi"
INDEX 01 31:56:72
TRACK 11 AUDIO
TITLE "SCG10: Demonic Semitones"
PERFORMER "Lordi"
INDEX 01 35:55:57
TRACK 12 AUDIO
TITLE "Cutterfly"
PERFORMER "Lordi"
INDEX 01 37:16:14
TRACK 13 AUDIO
TITLE "Evil"
PERFORMER "Lordi"
INDEX 01 41:36:45
TRACK 14 AUDIO
TITLE "Scream Demon"
PERFORMER "Lordi"
INDEX 01 46:10:72
TRACK 15 AUDIO
TITLE "SCG10: I Am Here"
PERFORMER "Lordi"
INDEX 01 50:48:74
[свернуть]

Лог проверки качества

-----------------------

DON'T MODIFY THIS FILE

-----------------------

PERFORMER: auCDtect Task Manager, ver. 1.6.0 RC1 build 1.6.0.1
Copyright © 2008-2010 y-soft. All rights reserved
[Ссылки могут видеть только зарегистрированные и активированные пользователи.]
[Only registered and activated users can see links.]

ANALYZER: auCDtect: CD records authenticity detector, version 0.8.2
Copyright © 2004 Oleg Berngardt. All rights reserved.
Copyright © 2004 Alexander Djourik. All rights reserved.


FILE: Lordi - Killection.flac
Size: 402107958 Hash: FE206E169400C87AEBBE2623E01EDECE Accuracy: -m0
Conclusion: CDDA 100%
Signature: C9AEFDBEE90F0A21A443141692607BBDEF251862
[свернуть]

Скачать Lordi - Killection: A Fictional Compilation Album

[Ссылки могут видеть только зарегистрированные и активированные пользователи.]
[Only registered and activated users can see links.]
[свернуть]

Вверх
2 пользователя(ей) сказали cпасибо:
sergych (18.01.2021), TAIFUN (15.01.2021)
 
Похожие темы
Тема Автор Раздел Ответов Последнее сообщение
Релиз Lordi - Babez for Breakfast PUPOKIN Heavy Metal 0 16.09.2010 11:23
Lordi - Deadache ReAl Hard Rock 0 25.10.2008 16:43
Новый альбом Lordi выйдет в октябре PUPOKIN Новости в мире музыки 0 19.08.2008 19:35
A Compilation - Vol. 3 Tolich Electro 0 07.06.2008 02:01


Метки
2020 , hard rock , heavy metal , killection: a fictional compilation album , lordi

Опции темы

Ваши права в разделе
Вы не можете создавать новые темы
Вы не можете отвечать в темах
Вы не можете прикреплять вложения
Вы не можете редактировать свои сообщения

Быстрый переход


Текущее время: 13:17. Часовой пояс GMT +3.

© 2008 - 2020 Taifun With Song
Powered by vBulletin® Version 3.8.10
Copyright ©2000 - 2021, vBulletin Solutions, Inc. Перевод: zCarot
При поддержке NIC.UA
Яндекс.Метрика