TAIFUN With Song - качественная и редкая музыка
Навигация
Pop Rock Поп-рок — жанр музыки, объединяющий элементы поп-музыки и рок-музыки. Песни характеризуются простой структурой, запоминающимися мелодиями, повторением музыкальных фраз (от попа), использованием в качестве основных инструментов электрогитар и ударных и агрессивным настроением (от рока).

А знаете ли Вы, что...
Зачем Джимми Хендрикс на некоторых концертах целовал в щёку своего бас-гитариста?
«В песне Джимми Хендрикса «Purple Haze» есть строчка: «Excuse me while I kiss the sky» («Прости меня, когда я целую небеса»). Очень часто слушатели понимали её совсем по-другому: «Excuse me while I kiss this guy» («Прости меня, когда я целую этого парня»). Сам Хендрикс знал об этой ослышке и иногда после исполнения этой строчки целовал в щёку своего бас-гитариста.»
 
Опции темы

  #1
Старый 04.06.2015, 19:27
sergych
Координатор
Досье
 
Аватар для sergych
FLAC Scissor Sisters - Ta-Dah


2006 - Scissor Sisters - Ta-Dah




Исполнитель/Artist: Scissor Sisters
Альбом/Album: Ta-Dah
Год/Year: 2006
Жанр/Genre: Glam rock, pop, alternative
Страна/Country: Великобритания
Рекорд-лейбл/Record label: Polydor
Номер в каталоге/Catalogue #: 1705090
Формат/Format: MPEG Layer-3 (*.mp3)
Качество/Quality: CBR 320 kbps
Тип рипа/RIP Type: tracks
Продолжительность/Length: 00:47:32
Источник/Source: Собственный рип
Размер/Size: 166.4 MB

Сканы в комплекте

Треклист

01. I Don't Feel Like Dancin' [0:04:48.27]
02. She's My Man [0:05:31.56]
03. I Can't Decide [0:02:46.43]
04. Lights [0:03:35.39]
05. Land of a Thousand Words [0:03:50.30]
06. Intermission [0:02:36.72]
07. Kiss You Off [0:05:02.14]
08. Ooh [0:03:29.29]
09. Paul McCartney [0:03:44.42]
10. The Other Side [0:04:22.55]
11. Might Tell You Tonight [0:03:20.27]
12. Everybody Wants the Same Thing [0:04:22.39]
[свернуть]

youtube.com

[свернуть]

Исполнители/Performers

Jake Shears – vocals
Babydaddy – bass guitar, keyboards, vocals, guitar
Ana Matronic – vocals
Del Marquis – guitar, bass guitar
Paddy Boom – drums, percussion

Elton John – piano on "I Don't Feel Like Dancin'" and "Intermission"
J.J. Garden – additional piano on "She's My Man", piano on "I Can't Decide", "Land of a Thousand Words", "The Other Side" and "Everbody Wants the Same Thing"
Gina Gershon – Jew's harp on "I Can't Decide"
Carlos Alomar – additional guitar and bass on "Lights", "Paul McCartney" and "Hair Baby", additional guitar on "Transistor"
Paul Leschen – piano on "Lights", "Ooh" and "Everybody Wants the Same Thing"
Crispin Cioe – saxophone and horn arrangement on "Lights", "Paul McCartney" and "The Other Side"
Bob Funk – trombone on "Lights", "Paul McCartney" and "The Other Side"
Larry Etikn – trumpet on "Lights", "Paul McCartney", "The Other Side"
Joan Wasser – string arrangement and violin on "Land of a Thousand Words"
Jeff Hill – cello on "Land of a Thousand Words"
Van Dyke Parks – string arrangement on "Intermission"
Peter Kent – concert master on "Intermission"
[свернуть]

Скачать Scissor Sisters - Ta-Dah

[Ссылки могут видеть только зарегистрированные и активированные пользователи.]
[Only registered and activated users can see links.]

password: sergych
[свернуть]
My opinion of release: 9/10

Release info RInfo

Неудачная царапина на диске и, соответственно, ошибка контрольной суммы рипа.
Поэтому пока, до прибытия другого диска, - mp3
__________________
TAIFUN.Wings of Soul

Вверх
 
  #2
Старый 27.06.2015, 19:17
sergych
Координатор
Досье
 
Аватар для sergych
FLAC Scissor Sisters - Ta-Dah


2006 - Scissor Sisters - Ta-Dah




Исполнитель/Artist: Scissor Sisters
Альбом/Album: Ta-Dah
Год/Year: 2006
Жанр/Genre: Glam rock, pop, alternative
Страна/Country: Соединённые Штаты
Рекорд-лейбл/Record label: Polydor / UniversalMotown
Номер в каталоге/Catalogue #: B0007499-02
Формат/Format: Free Lossless Audio Codec (*.flac)
Качество/Quality: Lossless
Тип рипа/RIP Type: image+.cue
Продолжительность/Length: 00:47:32
Источник/Source: Собственный рип
Размер/Size: 401.9 MB

Сканы в комплекте

Треклист

01. I Don't Feel Like Dancin' [0:04:48.27]
02. She's My Man [0:05:31.56]
03. I Can't Decide [0:02:46.43]
04. Lights [0:03:35.39]
05. Land of a Thousand Words [0:03:50.30]
06. Intermission [0:02:36.72]
07. Kiss You Off [0:05:02.14]
08. Ooh [0:03:29.29]
09. Paul McCartney [0:03:44.42]
10. The Other Side [0:04:22.55]
11. Might Tell You Tonight [0:03:20.27]
12. Everybody Wants the Same Thing [0:04:22.40]
[свернуть]

youtube.com

[свернуть]

Исполнители/Performers

Jake Shears – vocals
Babydaddy – bass guitar, keyboards, vocals, guitar
Ana Matronic – vocals
Del Marquis – guitar, bass guitar
Paddy Boom – drums, percussion

Elton John – piano on "I Don't Feel Like Dancin'" and "Intermission"
J.J. Garden – additional piano on "She's My Man", piano on "I Can't Decide", "Land of a Thousand Words", "The Other Side" and "Everbody Wants the Same Thing"
Gina Gershon – Jew's harp on "I Can't Decide"
Carlos Alomar – additional guitar and bass on "Lights", "Paul McCartney" and "Hair Baby", additional guitar on "Transistor"
Paul Leschen – piano on "Lights", "Ooh" and "Everybody Wants the Same Thing"
Crispin Cioe – saxophone and horn arrangement on "Lights", "Paul McCartney" and "The Other Side"
Bob Funk – trombone on "Lights", "Paul McCartney" and "The Other Side"
Larry Etikn – trumpet on "Lights", "Paul McCartney", "The Other Side"
Joan Wasser – string arrangement and violin on "Land of a Thousand Words"
Jeff Hill – cello on "Land of a Thousand Words"
Van Dyke Parks – string arrangement on "Intermission"
Peter Kent – concert master on "Intermission"
[свернуть]

EAC лог

Exact Audio Copy V1.0 beta 3 from 29. August 2011

EAC extraction logfile from 27. June 2015, 15:56

Scissor Sisters / Ta-Dah

Used drive : ATAPI iHAS124 D Adapter: 0 ID: 2

Read mode : Secure
Utilize accurate stream : Yes
Defeat audio cache : Yes
Make use of C2 pointers : No

Read offset correction : 6
Overread into Lead-In and Lead-Out : No
Fill up missing offset samples with silence : Yes
Delete leading and trailing silent blocks : No
Null samples used in CRC calculations : Yes
Used interface : Installed external ASPI interface

Used output format : User Defined Encoder
Selected bitrate : 1024 kBit/s
Quality : High
Add ID3 tag : No
Command line compressor : C:\Program Files (x86)\Exact Audio Copy\Flac\flac.exe
Additional command line options : -6 -V -T "ARTIST=%artist%" -T "TITLE=%title%" -T "ALBUM=%albumtitle%" -T "DATE=%year%" -T "TRACKNUMBER=%tracknr%" -T "GENRE=%genre%" -T "COMMENT=%comment%" -T "BAND=%albuminterpret%" -T "COMPOSER=%composer%" %haslyrics%--tag-from-file=LYRICS="%lyricsfile%"%haslyrics% -T "DISCNUMBER=%cdnumber%" -T "TOTALDISCS=%totalcds%" -T "TOTALTRACKS=%numtracks%" %hascover%--picture="%coverfile%"%hascover% %source% -o %dest%


TOC of the extracted CD

Track | Start | Length | Start sector | End sector
---------------------------------------------------------
1 | 0:00.00 | 4:48.27 | 0 | 21626
2 | 4:48.27 | 5:31.56 | 21627 | 46507
3 | 10:20.08 | 2:46.43 | 46508 | 59000
4 | 13:06.51 | 3:35.39 | 59001 | 75164
5 | 16:42.15 | 3:50.30 | 75165 | 92444
6 | 20:32.45 | 2:36.72 | 92445 | 104216
7 | 23:09.42 | 5:02.14 | 104217 | 126880
8 | 28:11.56 | 3:29.29 | 126881 | 142584
9 | 31:41.10 | 3:44.42 | 142585 | 159426
10 | 35:25.52 | 4:22.55 | 159427 | 179131
11 | 39:48.32 | 3:20.27 | 179132 | 194158
12 | 43:08.59 | 4:22.40 | 194159 | 213848


Range status and errors

Selected range

Filename C:\mm\Scissor Sisters\2006 - Ta-Dah [B0007499-02]\Scissor Sisters - Ta-Dah.wav

Peak level 100.0 %
Extraction speed 8.6 X
Range quality 100.0 %
Test CRC 4A005275
Copy CRC 4A005275
Copy OK

No errors occurred


AccurateRip summary

Track 1 accurately ripped (confidence 57) [F94445F9] (AR v2)
Track 2 accurately ripped (confidence 57) [A39393B4] (AR v2)
Track 3 accurately ripped (confidence 57) [56E474F1] (AR v2)
Track 4 accurately ripped (confidence 57) [F97ACCCC] (AR v2)
Track 5 accurately ripped (confidence 57) [26C183A6] (AR v2)
Track 6 accurately ripped (confidence 57) [EA65BE17] (AR v2)
Track 7 accurately ripped (confidence 57) [D669F5F1] (AR v2)
Track 8 accurately ripped (confidence 56) [35ABED03] (AR v2)
Track 9 accurately ripped (confidence 57) [6C2CA78D] (AR v2)
Track 10 accurately ripped (confidence 57) [8A376874] (AR v2)
Track 11 accurately ripped (confidence 56) [D090B2C9] (AR v2)
Track 12 accurately ripped (confidence 56) [6F45364E] (AR v2)

All tracks accurately ripped

End of status report
[свернуть]

Файл CUE

REM GENRE Pop
REM DATE 2006
REM DISCID 950B230C
REM COMMENT "ExactAudioCopy v1.0b3"
PERFORMER "Scissor Sisters"
TITLE "Ta-Dah"
FILE "Scissor Sisters - Ta-Dah.flac" WAVE
TRACK 01 AUDIO
TITLE "I Don't Feel Like Dancin'"
PERFORMER "Scissor Sisters"
INDEX 01 00:00:00
TRACK 02 AUDIO
TITLE "She's My Man"
PERFORMER "Scissor Sisters"
INDEX 01 04:48:27
TRACK 03 AUDIO
TITLE "I Can't Decide"
PERFORMER "Scissor Sisters"
INDEX 01 10:20:08
TRACK 04 AUDIO
TITLE "Lights"
PERFORMER "Scissor Sisters"
INDEX 01 13:06:51
TRACK 05 AUDIO
TITLE "Land of a Thousand Words"
PERFORMER "Scissor Sisters"
INDEX 01 16:42:15
TRACK 06 AUDIO
TITLE "Intermission"
PERFORMER "Scissor Sisters"
INDEX 01 20:32:45
INDEX 02 23:09:42
TRACK 07 AUDIO
TITLE "Kiss You Off"
PERFORMER "Scissor Sisters"
INDEX 01 23:09:42
TRACK 08 AUDIO
TITLE "Ooh"
PERFORMER "Scissor Sisters"
INDEX 01 28:11:56
TRACK 09 AUDIO
TITLE "Paul McCartney"
PERFORMER "Scissor Sisters"
INDEX 01 31:41:10
TRACK 10 AUDIO
TITLE "The Other Side"
PERFORMER "Scissor Sisters"
INDEX 01 35:25:52
TRACK 11 AUDIO
TITLE "Might Tell You Tonight"
PERFORMER "Scissor Sisters"
INDEX 01 39:48:32
TRACK 12 AUDIO
TITLE "Everybody Wants the Same Thing"
PERFORMER "Scissor Sisters"
INDEX 01 43:08:59
[свернуть]

Лог проверки качества

AUDIOCHECKER v2.0 beta (build 457) - by Dester - [Ссылки могут видеть только зарегистрированные и активированные пользователи.]
[Only registered and activated users can see links.]
~~~~~~~~~~~~~~~~~~~~~~~~~~~~~~~~~~
-=== НЕ РЕДАКТИРУЙТЕ ЭТОТ ФАЙЛ! ===-

Путь: ...\2006 - Ta-Dah [B0007499-02]

1 -=- Scissor Sisters - Ta-Dah.flac -=- CDDA (100%)

250784116
[свернуть]

Спектр частот

[свернуть]

Скачать Scissor Sisters - Ta-Dah

[Ссылки могут видеть только зарегистрированные и активированные пользователи.]
[Only registered and activated users can see links.]

password: sergych
[свернуть]
My opinion of release: 9/10

Release info RInfo

2й студийник альтернативщиков из Америки, спродюссированный Elton John, Carlos Alomar и Paul Williams. Альбом поднялся до 19 места в US Billboard 200 chart.
__________________
TAIFUN.Wings of Soul

Вверх
Пользователь сказал cпасибо:
Mareki (18.08.2016)
  #3
Старый 22.12.2020, 08:34
sergych
Координатор
Досье
 
Аватар для sergych
FLAC Re: Scissor Sisters - Ta-Dah


2006 - Scissor Sisters - Ta-Dah




Исполнитель/Artist: Scissor Sisters
Альбом/Album: Ta-Dah {Collector's Edition}
Год/Year: 2006
Жанр/Genre: Glam rock, pop, alternative
Страна/Country: Германия
Рекорд-лейбл/Record label: Polydor
Номер в каталоге/Catalogue #: 1705088
Формат/Format: Free Lossless Audio Codec (*.flac)
Качество/Quality: Lossless
Тип рипа/RIP Type: image+.cue


Продолжительность/Length: 01:14:37
Источник/Source: Собственный рип
Размер/Size: 575.7 MB

Сканы в комплекте

Треклист

01. I Don't Feel Like Dancin' [0:04:48.27]
02. She's My Man [0:05:31.56]
03. I Can't Decide [0:02:46.43]
04. Lights [0:03:35.39]
05. Land of a Thousand Words [0:03:50.30]
06. Intermission [0:02:36.72]
07. Kiss You Off [0:05:02.14]
08. Ooh [0:03:29.29]
09. Paul McCartney [0:03:44.42]
10. The Other Side [0:04:22.55]
11. Might Tell You Tonight [0:03:20.27]
12. Everybody Wants the Same Thing [0:04:22.39]

Bonus Disc:
01. Hair Baby [0:04:06.44]
02. Contact High [Demo] [0:03:37.04]
03. Almost Sorry [0:03:15.19]
04. Transistor [0:04:51.12]
05. Making Ladies [0:04:39.61]
06. I Don't Feel Like Dancin' [Paper Faces Remix] [0:06:34.70]
[свернуть]

Превью на YouTube

[свернуть]

Исполнители/Performers

Jake Shears – vocals
Babydaddy – bass guitar, keyboards, vocals, guitar
Ana Matronic – vocals
Del Marquis – guitar, bass guitar
Paddy Boom – drums, percussion

Elton John – piano on "I Don't Feel Like Dancin'" and "Intermission"
J.J. Garden – additional piano on "She's My Man", piano on "I Can't Decide", "Land of a Thousand Words", "The Other Side" and "Everbody Wants the Same Thing"
Gina Gershon – Jew's harp on "I Can't Decide"
Carlos Alomar – additional guitar and bass on "Lights", "Paul McCartney" and "Hair Baby", additional guitar on "Transistor"
Paul Leschen – piano on "Lights", "Ooh" and "Everybody Wants the Same Thing"
Crispin Cioe – saxophone and horn arrangement on "Lights", "Paul McCartney" and "The Other Side"
Bob Funk – trombone on "Lights", "Paul McCartney" and "The Other Side"
Larry Etikn – trumpet on "Lights", "Paul McCartney", "The Other Side"
Joan Wasser – string arrangement and violin on "Land of a Thousand Words"
Jeff Hill – cello on "Land of a Thousand Words"
Van Dyke Parks – string arrangement on "Intermission"
Peter Kent – concert master on "Intermission"
[свернуть]

EAC лог

CD1
CD2
[свернуть]

Файл CUE

CD1
CD2
[свернуть]

Лог проверки качества

AUDIOCHECKER v2.0 beta (build 457) - by Dester - [Ссылки могут видеть только зарегистрированные и активированные пользователи.]
[Only registered and activated users can see links.]
~~~~~~~~~~~~~~~~~~~~~~~~~~~~~~~~~~
-=== НЕ РЕДАКТИРУЙТЕ ЭТОТ ФАЙЛ! ===-

Путь: ...\2006 - Ta-Dah {Collector's Edition} [602517050884]

1 -=- Scissor Sisters - Ta Dah! (CD2).flac -=- CDDA (99%)
2 -=- Scissor Sisters - Ta-Dah (CD1).flac -=- CDDA (100%)

Сводка 99,50% CDDA

4838580

========
PERFORMER: auCDtect Task Manager, ver. 1.6.0 RC1 build 1.6.0.1
Copyright © 2008-2010 y-soft. All rights reserved
[Ссылки могут видеть только зарегистрированные и активированные пользователи.]
[Only registered and activated users can see links.]

ANALYZER: auCDtect: CD records authenticity detector, version 0.8.2
Copyright © 2004 Oleg Berngardt. All rights reserved.
Copyright © 2004 Alexander Djourik. All rights reserved.


FILE: Scissor Sisters - Ta-Dah (CD1).flac
Size: 352445278 Hash: BE9EA1A957DC7BFB656CDE8D7A7BAE59 Accuracy: -m8
Conclusion: CDDA 100%
Signature: B73F8101DFC97508BF841DEB19EA356E8208AAA8
FILE: Scissor Sisters - Ta Dah! (CD2).flac
Size: 188863058 Hash: 1D31568BABA2098FE0B43AAECA32C6AE Accuracy: -m8
Conclusion: CDDA 100%
Signature: 6767435A07638645DFD55456A2EED2C85CF1AED0
[свернуть]

Отчёт Dynamic Range Meter

Код:
foobar2000 1.6 / Замер динамического диапазона (DR) 1.1.1
Дата отчёта:		2020-12-22 09:58:09

--------------------------------------------------------------------------------
Анализ:   Scissor Sisters / Ta Dah! (CD2)
--------------------------------------------------------------------------------

DR         Пики         RMS           Продолжительность трека
--------------------------------------------------------------------------------
DR7       -0.29 дБ    -9.00 дБ      4:07 01-Hair Baby
DR6       -0.30 дБ    -7.78 дБ      3:37 02-Contact High [Demo]
DR7       -0.30 дБ   -10.47 дБ      3:15 03-Almost Sorry
DR6        0.00 дБ    -8.60 дБ      4:51 04-Transistor
DR7       -0.30 дБ    -8.07 дБ      4:40 05-Making Ladies
DR7       -0.29 дБ    -8.55 дБ      6:35 06-I Don't Feel Like Dancin' [Paper Faces Remix]
--------------------------------------------------------------------------------

Количество треков:	6
Реальные значения DR:	DR7

Частота:			44100 Гц
Каналов:			2
Разрядность: 		16
Битрейт:			930 кбит/с
Кодек:			FLAC
================================================================================

--------------------------------------------------------------------------------
Анализ:   Scissor Sisters / Ta-Dah (CD1)
--------------------------------------------------------------------------------

DR         Пики         RMS           Продолжительность трека
--------------------------------------------------------------------------------
DR5       -0.29 дБ    -7.09 дБ      4:48 01-I Don't Feel Like Dancin'
DR5       -0.29 дБ    -6.82 дБ      5:32 02-She's My Man
DR6       -0.29 дБ    -8.07 дБ      2:47 03-I Can't Decide
DR6       -0.49 дБ    -8.43 дБ      3:36 04-Lights
DR6       -0.30 дБ    -8.70 дБ      3:50 05-Land of a Thousand Words
DR9       -0.30 дБ   -11.36 дБ      2:37 06-Intermission
DR5       -0.29 дБ    -7.08 дБ      5:02 07-Kiss You Off
DR6        0.00 дБ    -7.16 дБ      3:29 08-Ooh
DR5       -0.29 дБ    -6.75 дБ      3:45 09-Paul McCartney
DR5       -0.29 дБ    -7.05 дБ      4:23 10-The Other Side
DR6       -0.29 дБ    -7.74 дБ      3:20 11-Might Tell You Tonight
DR6       -0.29 дБ    -8.21 дБ      4:23 12-Everybody Wants the Same Thing
--------------------------------------------------------------------------------

Количество треков:	12
Реальные значения DR:	DR6

Частота:			44100 Гц
Каналов:			2
Разрядность: 		16
Битрейт:			989 кбит/с
Кодек:			FLAC
================================================================================
[свернуть]

Спектр частот



[свернуть]

Скачать Scissor Sisters - Ta-Dah

[Ссылки могут видеть только зарегистрированные и активированные пользователи.]
[Only registered and activated users can see links.]

password: sergych
[свернуть]

Контрольная сумма (хеш-сумма) архива

MD5: f74606a41064292229f34a8ed59f5aed
[свернуть]
My opinion of release: 9/10

Release info RInfo

очень долго добирался до сканера А3, чтобы не склеивать плакат, входящий в комплект этого издания, от того рип, сделанный ещё летом прождал своей очереди почти до самого Нового года
__________________
TAIFUN.Wings of Soul

Вверх
2 пользователя(ей) сказали cпасибо:
johnsilver (23.12.2020), TAIFUN (22.12.2020)
Похожие темы
Тема Автор Раздел Ответов Последнее сообщение
Альбом Scissor Sisters - Scissor Sisters sergych Pop Rock 0 06.04.2016 20:14
Релиз Scissor Sisters - Magic Hour(Deluxe Edition) PUPOKIN Зарубежная Поп-Музыка 0 25.05.2012 09:57
Биография The Barry Sisters sergych Jazz [FAQ] 0 18.01.2009 17:23
Альбом The Barry Sisters - All Gold Of The World PUPOKIN Folk (народная) 0 18.01.2009 13:54


Метки
2006 , alternative , glam rock , pop , scissor sisters , ta-dah

Опции темы

Ваши права в разделе
Вы не можете создавать новые темы
Вы не можете отвечать в темах
Вы не можете прикреплять вложения
Вы не можете редактировать свои сообщения

Быстрый переход


Текущее время: 13:15. Часовой пояс GMT +3.

© 2008 - 2020 Taifun With Song
Powered by vBulletin® Version 3.8.10
Copyright ©2000 - 2021, vBulletin Solutions, Inc. Перевод: zCarot
При поддержке NIC.UA
Яндекс.Метрика