TAIFUN With Song - качественная и редкая музыка
Навигация
Soft Rock Это музыкальный стиль, который использует технику рок-н-ролла чтобы достичь более мягкого, более приятного для слуха звука, чтобы такую музыку было приятно слушать, например, на работе или за рулем. Soft rock всегда поется с высокими голосами, если певец мужчина, то он будет петь фальцетом, слова soft rock’а всегда сфокусированы на приятные темы, такие, как любовь, ежедневная жизнь и дружба.

А знаете ли Вы, что...
Зачем группа Van Halen в своём райдере требовала предоставить M&M's, но убрать все коричневые конфеты?
«Американская хард-рок группа Van Halen выезжала на гастроли с большим количеством сценического оборудования, так как их шоу были одними из самых сложных в техническом отношении и насыщены множеством спецэффектов. В райдере группы одним из требований было поставить на стол в гримёрке блюдо с M&M's, из которого должны быть убраны все коричневые конфеты. Объяснялся этот пункт вовсе не повышенной капризностью рокеров — если организаторы концерта не выполняли требование об M&M's, это говорило об их невнимательном отношении к деталям райдера. Значит, и другие его пункты могли быть проигнорированы, что могло создать проблемы с качественным проведением шоу и его безопасностью.»
 
Опции темы

  #1
Старый 01.11.2010, 19:29
sergych
Координатор
Досье
 
Аватар для sergych
Релиз Cyndi Lauper - The Body Acoustic


2005 - Cyndi Lauper - The Body Acoustic




Исполнитель/Artist: Cyndi Lauper
Альбом/Album: The Body Acoustic
Год/Year: 2005
Жанр/Genre: Soft Rock, Blues Rock, New Wave, R&B, synthpop
Страна/Country: Европа
Рекорд-лейбл/Record label: Epic / Daylight
Номер в каталоге/Catalogue #: 82876804342
Формат/Format: Free Lossless Audio Codec (*.flac)
Качество/Quality: Lossless
Тип рипа/RIP Type: image+.cue
Продолжительность/Length: 00:52:06
Источник/Source: Из интернета
Размер/Size: 345.4 MB

Сканы в комплекте

Треклист

01 - Money Changes Everything (with Adam Lazzara)
02 - All Through The Night (with Shaggy)
03 - Time After Time (with Sarah McLachlan)
04 - She Bop
05 - Above The Clouds (with Jeff Beck)
06 - I'll Be Your River (with Vivian Green)
07 - Sisters Of Avalon (with Ani DiFranco and Vivian Green)
08 - Shine
09 - True Colors
10 - Water's Edge (with Sarah McLachlan)
11 - Fearless
12 - Girls Just Wanna Have Fun (with Puffy Ami Yumi)
[свернуть]

youtube.com

[свернуть]

Исполнители/Performers

Cyndi Lauper - vocals, appalachian dulcimer, guitar
Rick Chertoff - Piano, Producer
Allison Cornell - Violin, viola, dulcimer drone, background vocals
Jeff Beck - guitar on "Above The Clouds"
Kat Dyson - Slide guitar, rhythm guitar on "Sisters of Avalon"
Mark Egan - Bass guitar
Steve Gaboury - Organs, juno, harmonium
Jim Hines - Trumpet
Rob Hyman - Melodica
Zev Katz - Bass
Tom Malone - Trombone
Sammy Merendino - drums
Jamie West-Oram - Guitar
William Wittman - Bass guitar, background vocals, Producer
[свернуть]

EAC лог

Exact Audio Copy V0.99 prebeta 5 from 4. May 2009

Отчёт EAC об извлечении, выполненном 17. апреля 2011, 17:44

Cyndi Lauper / The Body Acoustic

Дисковод: _NEC DVD_RW ND-4550A Adapter: 4 ID: 0

Режим чтения : Достоверность
Использование точного потока : Да
Отключение кэша аудио : Да
Использование указателей C2 : Нет

Коррекция смещения при чтении : 48
Способность читать области Lead-in и Lead-out : Нет
Заполнение пропущенных сэмплов тишиной : Да
Удаление блоков с тишиной в начале и конце : Нет
При вычислениях CRC использовались нулевые сэмплы : Да
Интерфейс : Встроенный Win32-интерфейс для Win NT/2000

Выходной формат : Внутренние WAV-операции
Формат сэмплов : 44.100 Гц; 16 бит; стерео


TOC извлечённого CD

Трек | Старт | Длительность | Начальный сектор | Конечный сектор
---------------------------------------------------------------------
1 | 0:00.00 | 5:14.66 | 0 | 23615
2 | 5:14.66 | 4:40.28 | 23616 | 44643
3 | 9:55.19 | 4:16.48 | 44644 | 63891
4 | 14:11.67 | 4:16.62 | 63892 | 83153
5 | 18:28.54 | 3:57.30 | 83154 | 100958
6 | 22:26.09 | 4:47.25 | 100959 | 122508
7 | 27:13.34 | 5:27.24 | 122509 | 147057
8 | 32:40.58 | 3:31.21 | 147058 | 162903
9 | 36:12.04 | 4:09.72 | 162904 | 181650
10 | 40:22.01 | 4:46.04 | 181651 | 203104
11 | 45:08.05 | 3:57.72 | 203105 | 220951
12 | 49:06.02 | 3:00.43 | 220952 | 234494


Характеристики диапазона извлечения и сообщения об ошибках

Выбранный диапазон

Имя файла C:\Temp\Cyndi Lauper - The Body Acoustic.wav

Пиковый уровень 99.8 %
Качество диапазона 100.0 %
CRC копии DF605142
Копирование... OK

Ошибок не произошло

Конец отчёта
[свернуть]

Файл CUE

REM GENRE Pop
REM DATE 2005
REM DISCID A00C360C
REM COMMENT "ExactAudioCopy v0.99pb5"
PERFORMER "Cyndi Lauper"
TITLE "The Body Acoustic"
FILE "Cyndi Lauper - The Body Acoustic.flac" WAVE
TRACK 01 AUDIO
TITLE "Money Change's Everything (with Adam Lazzara)"
PERFORMER "Cyndi Lauper"
INDEX 01 00:00:00
TRACK 02 AUDIO
TITLE "All Through The Night (with Shaggy)"
PERFORMER "Cyndi Lauper"
INDEX 01 05:14:66
TRACK 03 AUDIO
TITLE "Time After Time (with Sarah McLachlan)"
PERFORMER "Cyndi Lauper"
INDEX 01 09:55:19
TRACK 04 AUDIO
TITLE "She Bop"
PERFORMER "Cyndi Lauper"
INDEX 01 14:11:67
TRACK 05 AUDIO
TITLE "Above The Clouds (with Jeff Beck)"
PERFORMER "Cyndi Lauper"
INDEX 01 18:28:54
TRACK 06 AUDIO
TITLE "I'll Be Your River (with Vivian Green)"
PERFORMER "Cyndi Lauper"
INDEX 01 22:26:09
TRACK 07 AUDIO
TITLE "Sisters Of Avalon (with Ani DiFranco & Vivian Green)"
PERFORMER "Cyndi Lauper"
INDEX 01 27:13:34
TRACK 08 AUDIO
TITLE "Shine"
PERFORMER "Cyndi Lauper"
INDEX 01 32:40:58
TRACK 09 AUDIO
TITLE "True Colors"
PERFORMER "Cyndi Lauper"
INDEX 01 36:12:04
TRACK 10 AUDIO
TITLE "Water's Edge (with Sarah McLachlan)"
PERFORMER "Cyndi Lauper"
INDEX 01 40:22:01
TRACK 11 AUDIO
TITLE "Fearless"
PERFORMER "Cyndi Lauper"
INDEX 01 45:08:05
TRACK 12 AUDIO
TITLE "Girls Just Wanna Have Fun (with Puffy Ami Yumi)"
PERFORMER "Cyndi Lauper"
INDEX 01 49:06:02
[свернуть]

Лог проверки качества

AUDIOCHECKER v2.0 beta (build 457) - by Dester - [Ссылки могут видеть только зарегистрированные и активированные пользователи.]
[Only registered and activated users can see links.]
~~~~~~~~~~~~~~~~~~~~~~~~~~~~~~~~~~
-=== НЕ РЕДАКТИРУЙТЕ ЭТОТ ФАЙЛ! ===-

Путь: ...\Temp

1 -=- Cyndi Lauper - The Body Acoustic.wav -=- CDDA (100%)

11850116
[свернуть]

Скачать Cyndi Lauper - The Body Acoustic

[Ссылки могут видеть только зарегистрированные и активированные пользователи.]
[Only registered and activated users can see links.]

password: sergych
[свернуть]
My opinion of release: 10/10

Release info RInfo

9-ый студийный альбом, вобравший в себя акустические версии известных песен Синди, исполненные ею совместно с приглашёнными певцами, а также 2 песни, написанные специально для этого альбома - Above the Clouds и I'll Be Your River.
__________________
TAIFUN.Wings of Soul


Последний раз редактировалось sergych, 16.11.2013 в 20:41. Причина: перезаливка, оптимизация темы
Вверх
Пользователь сказал cпасибо:
TAIFUN (02.11.2010)
  #2
Старый 06.06.2019, 09:04
sergych
Координатор
Досье
 
Аватар для sergych
Релиз Re: Cyndi Lauper - The Body Acoustic


2005 - Cyndi Lauper - The Body Acoustic




Исполнитель/Artist: Cyndi Lauper
Альбом/Album: The Body Acoustic
Год/Year: 2005
Жанр/Genre: Soft Rock, Blues Rock, New Wave, R&B, synthpop
Страна/Country: Япония
Рекорд-лейбл/Record label: Sony BMG Music
Номер в каталоге/Catalogue #: EICP 568
Формат/Format: Free Lossless Audio Codec (*.flac)
Качество/Quality: Lossless
Тип рипа/RIP Type: image+.cue
Продолжительность/Length: 00:52:23
Источник/Source: Собственный рип
Размер/Size: 374.1 MB

Сканы в комплекте

Треклист

01. Money Changes Everything (Feat. Adam Lazzara) [0:05:14.54]
02. All Through The Night (Feat. Shaggy) [0:04:40.40]
03. Time After Time (Feat. Sarah Mclachlan) [0:04:17.03]
04. She Bop [0:04:16.74]
05. Above The Clouds (Feat. Jeff Beck) [0:03:57.64]
06. I'll Be Your River (Feat. Vivian Green) [0:04:47.38]
07. Sisters Of Avalon (Feat. Ani Difranco & Vivian Green) [0:05:27.24]
08. Shine [0:03:32.39]
09. True Colors [0:04:10.10]
10. Water's Edge (Feat. Sarah Mclachlan) [0:04:48.69]
11. Fearless [0:04:07.72]
12. Girls Just Want To Have Fun (Feat. Puffy AmiYumi) [0:03:01.15]
[свернуть]

Превью на YouTube

[свернуть]

Исполнители/Performers

Cyndi Lauper - vocals, appalachian dulcimer, guitar
Rick Chertoff - Piano
Allison Cornell - Violin, viola, dulcimer drone, background vocals
Jeff Beck - guitar on "Above The Clouds"
Kat Dyson - Slide guitar, rhythm guitar on "Sisters of Avalon"
Mark Egan - Bass guitar
Steve Gaboury - Organs, juno, harmonium
Jim Hines - Trumpet
Rob Hyman - Melodica
Zev Katz - Bass
Tom Malone - Trombone
Sammy Merendino - drums
Jamie West-Oram - Guitar
William Wittman - Bass guitar, background vocals
[свернуть]

EAC лог

Exact Audio Copy V1.3 from 2. September 2016

EAC extraction logfile from 5. June 2019, 8:13

Cyndi Lauper / The Body Acoustic

Used drive : PIONEER DVD-RW DVR-220L Adapter: 1 ID: 0

Read mode : Secure
Utilize accurate stream : Yes
Defeat audio cache : Yes
Make use of C2 pointers : No

Read offset correction : 6
Overread into Lead-In and Lead-Out : No
Fill up missing offset samples with silence : Yes
Delete leading and trailing silent blocks : No
Null samples used in CRC calculations : Yes
Used interface : Installed external ASPI interface

Used output format : User Defined Encoder
Selected bitrate : 1024 kBit/s
Quality : High
Add ID3 tag : No
Command line compressor : C:\Program Files (x86)\Exact Audio Copy\Flac\flac.exe
Additional command line options : -6 -V -T "ARTIST=%artist%" -T "TITLE=%title%" -T "ALBUM=%albumtitle%" -T "DATE=%year%" -T "TRACKNUMBER=%tracknr%" -T "GENRE=%genre%" -T "COMMENT=%comment%" -T "BAND=%albuminterpret%" -T "ALBUMARTIST=%albuminterpret%" -T "COMPOSER=%composer%" %haslyrics%--tag-from-file=LYRICS="%lyricsfile%"%haslyrics% -T "DISCNUMBER=%cdnumber%" -T "TOTALDISCS=%totalcds%" -T "TOTALTRACKS=%numtracks%" %hascover%--picture="%coverfile%"%hascover% %source% -o %dest%


TOC of the extracted CD

Track | Start | Length | Start sector | End sector
---------------------------------------------------------
1 | 0:00.00 | 5:14.54 | 0 | 23603
2 | 5:14.54 | 4:40.40 | 23604 | 44643
3 | 9:55.19 | 4:17.03 | 44644 | 63921
4 | 14:12.22 | 4:16.74 | 63922 | 83195
5 | 18:29.21 | 3:57.64 | 83196 | 101034
6 | 22:27.10 | 4:47.38 | 101035 | 122597
7 | 27:14.48 | 5:27.24 | 122598 | 147146
8 | 32:41.72 | 3:32.39 | 147147 | 163085
9 | 36:14.36 | 4:10.10 | 163086 | 181845
10 | 40:24.46 | 4:48.69 | 181846 | 203514
11 | 45:13.40 | 4:07.72 | 203515 | 222111
12 | 49:21.37 | 3:01.15 | 222112 | 235701


Range status and errors

Selected range

Filename C:\mm\Cyndi Lauper\2005 - The Body Acoustic [EICP 568]\Cyndi Lauper - The Body Acoustic.wav

Peak level 100.0 %
Extraction speed 7.1 X
Range quality 99.9 %
Test CRC A849788D
Copy CRC A849788D
Copy OK

No errors occurred


AccurateRip summary

Track 1 accurately ripped (confidence 10) [93882BD3] (AR v2)
Track 2 accurately ripped (confidence 10) [607861D7] (AR v2)
Track 3 accurately ripped (confidence 10) [6C4D79C2] (AR v2)
Track 4 accurately ripped (confidence 10) [771C144A] (AR v2)
Track 5 accurately ripped (confidence 10) [B922C2EE] (AR v2)
Track 6 accurately ripped (confidence 10) [C1E9F128] (AR v2)
Track 7 accurately ripped (confidence 10) [3B6477D6] (AR v2)
Track 8 accurately ripped (confidence 10) [5016CD81] (AR v2)
Track 9 accurately ripped (confidence 10) [1C239CAD] (AR v2)
Track 10 accurately ripped (confidence 10) [C21488FA] (AR v2)
Track 11 accurately ripped (confidence 10) [F42D33BD] (AR v2)
Track 12 accurately ripped (confidence 10) [C78C93D5] (AR v2)

All tracks accurately ripped

End of status report
[свернуть]

Файл CUE

REM GENRE Pop
REM DATE 2005
REM DISCID AB0C460C
REM COMMENT "ExactAudioCopy v1.3"
PERFORMER "Cyndi Lauper"
TITLE "The Body Acoustic"
REM COMPOSER ""
FILE "Cyndi Lauper - The Body Acoustic.flac" WAVE
TRACK 01 AUDIO
TITLE "Money Changes Everything (Feat. Adam Lazzara)"
PERFORMER "Cyndi Lauper"
REM COMPOSER ""
INDEX 01 00:00:00
TRACK 02 AUDIO
TITLE "All Through The Night (Feat. Shaggy)"
PERFORMER "Cyndi Lauper"
REM COMPOSER ""
INDEX 01 05:14:54
TRACK 03 AUDIO
TITLE "Time After Time (Feat. Sarah Mclachlan)"
PERFORMER "Cyndi Lauper"
REM COMPOSER ""
INDEX 01 09:55:19
TRACK 04 AUDIO
TITLE "She Bop"
PERFORMER "Cyndi Lauper"
REM COMPOSER ""
INDEX 01 14:12:22
TRACK 05 AUDIO
TITLE "Above The Clouds (Feat. Jeff Beck)"
PERFORMER "Cyndi Lauper"
REM COMPOSER ""
INDEX 01 18:29:21
TRACK 06 AUDIO
TITLE "I'll Be Your River (Feat. Vivian Green)"
PERFORMER "Cyndi Lauper"
REM COMPOSER ""
INDEX 01 22:27:10
TRACK 07 AUDIO
TITLE "Sisters Of Avalon (Feat. Ani Difranco & Vivian Green)"
PERFORMER "Cyndi Lauper"
REM COMPOSER ""
INDEX 00 27:11:13
INDEX 01 27:14:48
TRACK 08 AUDIO
TITLE "Shine"
PERFORMER "Cyndi Lauper"
REM COMPOSER ""
INDEX 01 32:41:72
TRACK 09 AUDIO
TITLE "True Colors"
PERFORMER "Cyndi Lauper"
REM COMPOSER ""
INDEX 00 36:13:30
INDEX 01 36:14:36
TRACK 10 AUDIO
TITLE "Water's Edge (Feat. Sarah Mclachlan)"
PERFORMER "Cyndi Lauper"
REM COMPOSER ""
INDEX 01 40:24:46
TRACK 11 AUDIO
TITLE "Fearless"
PERFORMER "Cyndi Lauper"
REM COMPOSER ""
INDEX 00 45:11:35
INDEX 01 45:13:40
TRACK 12 AUDIO
TITLE "Girls Just Want To Have Fun (Feat. Puffy AmiYumi)"
PERFORMER "Cyndi Lauper"
REM COMPOSER ""
INDEX 00 49:11:62
INDEX 01 49:21:37
[свернуть]

Лог проверки качества

AUDIOCHECKER v2.0 beta (build 457) - by Dester - [Ссылки могут видеть только зарегистрированные и активированные пользователи.]
[Only registered and activated users can see links.]
~~~~~~~~~~~~~~~~~~~~~~~~~~~~~~~~~~
-=== НЕ РЕДАКТИРУЙТЕ ЭТОТ ФАЙЛ! ===-

Путь: ...\2005 - The Body Acoustic [EICP 568]

1 -=- Cyndi Lauper - The Body Acoustic.flac -=- CDDA (100%)

66176020
[свернуть]

Спектр частот

[свернуть]

Скачать Cyndi Lauper - The Body Acoustic

[Ссылки могут видеть только зарегистрированные и активированные пользователи.]
[Only registered and activated users can see links.]

password: sergych
[свернуть]

Контрольная сумма (хеш-сумма) архива

MD5: aeaab32a4c4337d0e5752de338b489ac
[свернуть]
My opinion of release: 10/10

Release info RInfo

Дошли, наконец-то, руки до приобретения в коллекцию и этого альбома
__________________
TAIFUN.Wings of Soul

Вверх
3 пользователя(ей) сказали cпасибо:
johnsilver (08.06.2019), swint68 (07.06.2019), TAIFUN (07.06.2019)
  #3
Старый 07.06.2019, 09:42
swint68
Меломан
Досье
 
Аватар для swint68
По умолчанию Re: Cyndi Lauper - The Body Acoustic

Шикарный альбом!
Любая акустика - это показатель возможностей исполнителя.
Не каждый из артистов решается на выпуск акустических альбомов, т.к. тут минимум муз наворотов, которые могут приукрасить реальные возможности.


Последний раз редактировалось sergych, 08.06.2019 в 20:07. Причина: исправил пару опечаток
Вверх
2 пользователя(ей) сказали cпасибо:
sergych (08.06.2019), TAIFUN (07.06.2019)
Похожие темы
Тема Автор Раздел Ответов Последнее сообщение
Сборник Cyndi Lauper - Playlist: The Very Best of Cyndi Lauper sergych Soft Rock 1 18.03.2016 19:24
Ремикс Cyndi Lauper - The Best Remixes sergych Soft Rock 1 18.03.2016 19:03
Cyndi Lauper sergych Rock [FAQ] 0 13.06.2008 17:50


Метки
blues , blues rock , cyndi lauper , new wave , rock

Опции темы

Ваши права в разделе
Вы не можете создавать новые темы
Вы не можете отвечать в темах
Вы не можете прикреплять вложения
Вы не можете редактировать свои сообщения

Быстрый переход




Текущее время: 03:17. Часовой пояс GMT +3.
Powered by vBulletin® Version 3.8.10
Copyright ©2000 - 2019, vBulletin Solutions, Inc. Перевод: zCarot
© 2008 - 2019 Taifun With Song
Яндекс.Метрика