TAIFUN With Song - качественная и редкая музыка
Навигация
Pop Rock Поп-рок — жанр музыки, объединяющий элементы поп-музыки и рок-музыки. Песни характеризуются простой структурой, запоминающимися мелодиями, повторением музыкальных фраз (от попа), использованием в качестве основных инструментов электрогитар и ударных и агрессивным настроением (от рока).

А знаете ли Вы, что...
Какой знаменитый музыкант играл в метро, и люди почти не проявили интерес к его музыке?
«Один из лучших скрипачей американец Джошуа Белл 12 января 2007 года согласился принять участие в эксперименте — утром на протяжении 45 минут он играл в вестибюле станции метро под видом обычного уличного музыканта. Из тысячи прошедших мимо людей только семь заинтересовались музыкой.»
 
Опции темы

  #1
Старый 16.05.2020, 03:48
sergych
Координатор
Досье
 
Аватар для sergych
FLAC Scissor Sisters - Night Work


2010 - Scissor Sisters - Night Work




Исполнитель/Artist: Scissor Sisters
Альбом/Album: Night Work
Год/Year: 2010
Жанр/Genre: Alternative rock, glam rock, nu-disco
Страна/Country: Германия
Рекорд-лейбл/Record label: Polydor / Universal Music
Номер в каталоге/Catalogue #: 2738110
Формат/Format: Free Lossless Audio Codec (*.flac)
Качество/Quality: Lossless
Тип рипа/RIP Type: image+.cue
Продолжительность/Length: 00:44:21
Источник/Source: Собственный рип
Размер/Size: 331.9 MB

Сканы в комплекте

Треклист

01. Night Work [0:03:07.60]
02. Whole New Way [0:02:54.06]
03. Fire With Fire [0:04:13.13]
04. Any Which Way [0:04:41.04]
05. Harder You Get [0:03:05.55]
06. Running Out [0:03:08.71]
07. Something Like This [0:03:01.73]
08. Skin This Cat [0:02:40.68]
09. Skin Tight [0:03:25.48]
10. Sex And Violence [0:04:10.33]
11. Night Life [0:03:37.08]
12. Invisible Light [0:06:14.23]
[свернуть]

Превью на YouTube

[свернуть]

Исполнители/Performers

Jake Shears – vocals
Babydaddy – bass guitar, guitar, keyboards, programming
Ana Matronic – vocals
Del Marquis – guitar
Joan Wasser – string arrangement
Kylie Minogue – backing vocals on "Any Which Way", sample of "Can't Get You Out of My Head" on "Something Like This"
Santi White (Santigold) – backing vocals on "Running Out"
Ian McKellen – vocals on "Invisible Light"
Helen Terry – backing vocals on "Whole New Way"
Randy Real (Randy Schrager) – drums, percussion
John "JJ" Garden – keyboards
Stuart Price – "everything in between"
[свернуть]

EAC лог

Exact Audio Copy V1.5 from 20. February 2020

EAC extraction logfile from 14. May 2020, 21:11

Scissor Sisters / Night Work

Used drive : PIONEER DVD-RW DVR-220L Adapter: 1 ID: 0

Read mode : Secure
Utilize accurate stream : Yes
Defeat audio cache : Yes
Make use of C2 pointers : No

Read offset correction : 6
Overread into Lead-In and Lead-Out : No
Fill up missing offset samples with silence : Yes
Delete leading and trailing silent blocks : No
Null samples used in CRC calculations : Yes
Used interface : Installed external ASPI interface

Used output format : User Defined Encoder
Selected bitrate : 1024 kBit/s
Quality : High
Add ID3 tag : No
Command line compressor : C:\Program Files (x86)\Exact Audio Copy\Flac\flac.exe
Additional command line options : -6 -V -T "ARTIST=%artist%" -T "TITLE=%title%" -T "ALBUM=%albumtitle%" -T "DATE=%year%" -T "TRACKNUMBER=%tracknr%" -T "GENRE=%genre%" -T "COMMENT=%comment%" -T "BAND=%albuminterpret%" -T "ALBUMARTIST=%albuminterpret%" -T "COMPOSER=%composer%" %haslyrics%--tag-from-file=LYRICS="%lyricsfile%"%haslyrics% -T "DISCNUMBER=%cdnumber%" -T "TOTALDISCS=%totalcds%" -T "TOTALTRACKS=%numtracks%" %hascover%--picture="%coverfile%"%hascover% %source% -o %dest%


TOC of the extracted CD

Track | Start | Length | Start sector | End sector
---------------------------------------------------------
1 | 0:00.00 | 3:07.60 | 0 | 14084
2 | 3:07.60 | 2:54.06 | 14085 | 27140
3 | 6:01.66 | 4:13.13 | 27141 | 46128
4 | 10:15.04 | 4:41.04 | 46129 | 67207
5 | 14:56.08 | 3:05.55 | 67208 | 81137
6 | 18:01.63 | 3:08.71 | 81138 | 95308
7 | 21:10.59 | 3:01.73 | 95309 | 108956
8 | 24:12.57 | 2:40.68 | 108957 | 121024
9 | 26:53.50 | 3:25.48 | 121025 | 136447
10 | 30:19.23 | 4:10.33 | 136448 | 155230
11 | 34:29.56 | 3:37.08 | 155231 | 171513
12 | 38:06.64 | 6:14.23 | 171514 | 199586


Range status and errors

Selected range

Filename C:\mm\Scissor Sisters\2010 - Night Work [2738110]\Scissor Sisters - Night Work.wav

Peak level 100.0 %
Extraction speed 7.0 X
Range quality 100.0 %
Test CRC 40555F53
Copy CRC 40555F53
Copy OK

No errors occurred


AccurateRip summary

Track 1 accurately ripped (confidence 172) [A856F072] (AR v2)
Track 2 accurately ripped (confidence 172) [5313FCE5] (AR v2)
Track 3 accurately ripped (confidence 173) [9723C2BB] (AR v2)
Track 4 accurately ripped (confidence 174) [4419A089] (AR v2)
Track 5 accurately ripped (confidence 173) [1D8CCD0D] (AR v2)
Track 6 accurately ripped (confidence 174) [915AFE57] (AR v2)
Track 7 accurately ripped (confidence 175) [7C16F91E] (AR v2)
Track 8 accurately ripped (confidence 173) [2EB57E87] (AR v2)
Track 9 accurately ripped (confidence 173) [08CFDD63] (AR v2)
Track 10 accurately ripped (confidence 174) [11677DDD] (AR v2)
Track 11 accurately ripped (confidence 173) [8C6502F9] (AR v2)
Track 12 accurately ripped (confidence 171) [472623A2] (AR v2)

All tracks accurately ripped

End of status report
[свернуть]

Файл CUE

REM GENRE "Alt. Rock"
REM DATE 2010
REM DISCID A40A650C
REM COMMENT "ExactAudioCopy v1.5"
PERFORMER "Scissor Sisters"
TITLE "Night Work"
REM COMPOSER ""
FILE "Scissor Sisters - Night Work.flac" WAVE
TRACK 01 AUDIO
TITLE "Night Work"
PERFORMER "Scissor Sisters"
REM COMPOSER ""
INDEX 01 00:00:00
TRACK 02 AUDIO
TITLE "Whole New Way"
PERFORMER "Scissor Sisters"
REM COMPOSER ""
INDEX 01 03:07:60
TRACK 03 AUDIO
TITLE "Fire With Fire"
PERFORMER "Scissor Sisters"
REM COMPOSER ""
INDEX 00 06:00:20
INDEX 01 06:01:66
TRACK 04 AUDIO
TITLE "Any Which Way"
PERFORMER "Scissor Sisters"
REM COMPOSER ""
INDEX 01 10:15:04
TRACK 05 AUDIO
TITLE "Harder You Get"
PERFORMER "Scissor Sisters"
REM COMPOSER ""
INDEX 01 14:56:08
TRACK 06 AUDIO
TITLE "Running Out"
PERFORMER "Scissor Sisters"
REM COMPOSER ""
INDEX 01 18:01:63
TRACK 07 AUDIO
TITLE "Something Like This"
PERFORMER "Scissor Sisters"
REM COMPOSER ""
INDEX 00 21:10:31
INDEX 01 21:10:59
TRACK 08 AUDIO
TITLE "Skin This Cat"
PERFORMER "Scissor Sisters"
REM COMPOSER ""
INDEX 01 24:12:57
TRACK 09 AUDIO
TITLE "Skin Tight"
PERFORMER "Scissor Sisters"
REM COMPOSER ""
INDEX 01 26:53:50
TRACK 10 AUDIO
TITLE "Sex And Violence"
PERFORMER "Scissor Sisters"
REM COMPOSER ""
INDEX 01 30:19:23
TRACK 11 AUDIO
TITLE "Night Life"
PERFORMER "Scissor Sisters"
REM COMPOSER ""
INDEX 01 34:29:56
TRACK 12 AUDIO
TITLE "Invisible Light"
PERFORMER "Scissor Sisters"
REM COMPOSER ""
INDEX 01 38:06:64
[свернуть]

Лог проверки качества

AUDIOCHECKER v2.0 beta (build 457) - by Dester - [Ссылки могут видеть только зарегистрированные и активированные пользователи.]
[Only registered and activated users can see links.]
~~~~~~~~~~~~~~~~~~~~~~~~~~~~~~~~~~
-=== НЕ РЕДАКТИРУЙТЕ ЭТОТ ФАЙЛ! ===-

Путь: ...\2010 - Night Work [2738110]

1 -=- Scissor Sisters - Night Work.flac -=- CDDA (100%)

151246004
[свернуть]

Спектр частот

[свернуть]

Скачать Scissor Sisters - Night Work

[Ссылки могут видеть только зарегистрированные и активированные пользователи.]
[Only registered and activated users can see links.]

password: sergych
[свернуть]

Контрольная сумма (хеш-сумма) архива

MD5: 71193d82f61e0e5ddaf606efc89a635b
[свернуть]
My opinion of release: 9/10
__________________
TAIFUN.Wings of Soul

Вверх
Пользователь сказал cпасибо:
TAIFUN (16.05.2020)
 
Похожие темы
Тема Автор Раздел Ответов Последнее сообщение
Альбом Scissor Sisters - Scissor Sisters sergych Pop Rock 0 06.04.2016 20:14
Альбом Scissor Sisters - Ta-Dah sergych Pop Rock 1 27.06.2015 19:17
Сборник Men At Work - Contraband: The Best of Men at Work sergych Pop Rock 0 07.12.2013 11:25
Релиз Scissor Sisters - Magic Hour(Deluxe Edition) PUPOKIN Зарубежная Поп-Музыка 0 25.05.2012 08:57
Биография The Barry Sisters sergych Jazz [FAQ] 0 18.01.2009 16:23


Метки
2010 , alternative rock , glam rock , night work , nu-disco , scissor sisters

Опции темы

Ваши права в разделе
Вы не можете создавать новые темы
Вы не можете отвечать в темах
Вы не можете прикреплять вложения
Вы не можете редактировать свои сообщения

Быстрый переход


Текущее время: 18:02. Часовой пояс GMT +3.

© 2008 - 2020 Taifun With Song
Powered by vBulletin® Version 3.8.10
Copyright ©2000 - 2020, vBulletin Solutions, Inc. Перевод: zCarot
При поддержке NIC.UA
Яндекс.Метрика