TAIFUN With Song - качественная и редкая музыка
Навигация
Progressive Rock Единственной универсальной характеристикой прогрессивного рока является усложнение музыкальной формы. Это проявляется в удлиннении и усложнении музыкальных пьес, тяготении к циклическим формам академической музыки; расширении репертуара используемых тембров, усложнении метра и ритма, использовании нетрадиционных для рока мелодических и гармонических решений; поэзии, уходящей от тем развлекательной музыки и тяготеющей к философским «вечным темам», фантастической и фентезийной тематике; переплетении с классической и современной академической музыкой, джазом.

А знаете ли Вы, что...
Почему оркестры американских театров не исполняют национальный марш?
««Звёзды и полосы навсегда» — это самый известный патриотический марш США. Тем не менее, в американских театрах и цирках оркестр никогда не исполнит эту мелодию просто так. Она зарезервирована в качестве сигнала бедствия о чрезвычайной ситуации, например, пожаре, чтобы персонал мог начать эвакуацию зрителей без паники.»
 
Опции темы

  #1
Старый 13.05.2020, 14:52
TAIFUN
Admin
Досье
 
Аватар для TAIFUN
FLAC Barclay James Harvest - XII


1978 - Barclay James Harvest - XII




Исполнитель/Artist: Barclay James Harvest
Альбом/Album: XII
Год/Year: 1978
Ремастеринг/Remaster: 2000
Жанр/Genre: Progressive Rock
Страна/Country: Россия
Рекорд-лейбл/Record label: Grammy [пиратка]
Номер в каталоге/Catalogue #: JPCD 2000316
Страна/Country: Россия
Формат/Format: Free Lossless Audio Codec (*.flac)
Качество/Quality: Lossless
Тип рипа/RIP Type: image+.cue


Продолжительность/Length: 00:49:08
Источник/Source: Собственный рип
Размер/Size: 293 MB

Сканы в комплекте

Треклист

01. Fantasy: Loving Is Easy
02. Berlin
03. Classics: A Tale Of Two Sixties
04. Turning In Circles
05. Fact: The Closed Shop
06. In Search Of England
07. Sip Of Wine
08. Harbour
09. Science Fiction: Nova Lepidoptera
10. Giving It Up
11. Fiction: The Streets Of San Francisco
[свернуть]

Превью на YouTube

[свернуть]

Исполнители/Performers

Drums, Glockenspiel, Bells [Tubular], Timpani, Tambourine, Vibraphone [Premier], Congas [Natal] – Mel*
Guitar, Bass – John*
Guitar, Bass, Acoustic Guitar, Piano, Double Bass, Banjo [Iada G] – Les*
Piano, Synthesizer, Organ [Hammond], Twelve-String Guitar [Acoustic], Twelve-String Guitar [Electric] – Woolly*
[свернуть]

EAC лог

Exact Audio Copy V1.5 from 20. February 2020

EAC extraction logfile from 11. May 2020, 18:13

Barclay James Harvest / XII

Used drive : ASUS DRW-24D5MT Adapter: 1 ID: 0

Read mode : Secure
Utilize accurate stream : Yes
Defeat audio cache : Yes
Make use of C2 pointers : No

Read offset correction : 6
Overread into Lead-In and Lead-Out : No
Fill up missing offset samples with silence : Yes
Delete leading and trailing silent blocks : No
Null samples used in CRC calculations : Yes
Used interface : Native Win32 interface for Win NT & 2000

Used output format : Internal WAV Routines
Sample format : 44.100 Hz; 16 Bit; Stereo


TOC of the extracted CD

Track | Start | Length | Start sector | End sector
---------------------------------------------------------
1 | 0:00.32 | 4:06.30 | 32 | 18511
2 | 4:06.62 | 4:55.38 | 18512 | 40674
3 | 9:02.25 | 3:35.40 | 40675 | 56839
4 | 12:37.65 | 3:31.50 | 56840 | 72714
5 | 16:09.40 | 3:49.35 | 72715 | 89924
6 | 19:59.00 | 4:18.25 | 89925 | 109299
7 | 24:17.25 | 4:31.15 | 109300 | 129639
8 | 28:48.40 | 3:49.00 | 129640 | 146814
9 | 32:37.40 | 5:58.47 | 146815 | 173711
10 | 38:36.12 | 4:49.28 | 173712 | 195414
11 | 43:25.40 | 5:43.20 | 195415 | 221159


Range status and errors

Selected range

Filename D:\Музыка\ROCK\Barclay James Harvest\1978 - XII\Barclay James Harvest - XII.wav

Peak level 98.4 %
Extraction speed 1.7 X
Range quality 99.9 %
Copy CRC DF8C7C31
Copy OK

No errors occurred


AccurateRip summary

Track 1 accurately ripped (confidence 3) [4BAA5D88] (AR v2)
Track 2 accurately ripped (confidence 3) [5CBA652C] (AR v2)
Track 3 accurately ripped (confidence 3) [DC7A45BD] (AR v2)
Track 4 accurately ripped (confidence 3) [BA8EB033] (AR v2)
Track 5 accurately ripped (confidence 3) [87354925] (AR v2)
Track 6 accurately ripped (confidence 3) [675667BA] (AR v2)
Track 7 accurately ripped (confidence 3) [26E11E61] (AR v2)
Track 8 accurately ripped (confidence 2) [25BAADE6] (AR v2)
Track 9 accurately ripped (confidence 2) [7B19B163] (AR v2)
Track 10 accurately ripped (confidence 2) [3E6220E3] (AR v2)
Track 11 accurately ripped (confidence 2) [D97775A0] (AR v2)

All tracks accurately ripped

End of status report

---- CUETools DB Plugin V2.1.6

[CTDB TOCID: fzW0M6M0n1AQksv2.mUuUjRRLjY-] found
Submit result: fzW0M6M0n1AQksv2.mUuUjRRLjY- has been confirmed
Track | CTDB Status
1 | (156/158) Accurately ripped
2 | (148/158) Accurately ripped
3 | (149/158) Accurately ripped
4 | (156/158) Accurately ripped
5 | (153/158) Accurately ripped
6 | (154/158) Accurately ripped
7 | (154/158) Accurately ripped
8 | (155/158) Accurately ripped
9 | (154/158) Accurately ripped
10 | (155/158) Accurately ripped
11 | (152/158) Accurately ripped


==== Log checksum 591F382252E4FEF013B2DCC0132EDB149AFD6A5F5AB5BF606314B6A9ACED0569 ====
[свернуть]

Файл CUE

REM GENRE "Progressive Rock"
REM DATE 1978
REM DISCID 9A0B840B
REM COMMENT "ExactAudioCopy v1.5"
PERFORMER "Barclay James Harvest"
TITLE "XII"
REM COMPOSER ""
FILE "Barclay James Harvest - XII.flac" WAVE
TRACK 01 AUDIO
TITLE "Fantasy: Loving Is Easy"
PERFORMER "Barclay James Harvest"
REM COMPOSER ""
INDEX 00 00:00:00
INDEX 01 00:00:32
TRACK 02 AUDIO
TITLE "Berlin"
PERFORMER "Barclay James Harvest"
REM COMPOSER ""
INDEX 00 04:04:47
INDEX 01 04:06:62
TRACK 03 AUDIO
TITLE "Classics: A Tale of Two Sixties"
PERFORMER "Barclay James Harvest"
REM COMPOSER ""
INDEX 00 09:00:52
INDEX 01 09:02:25
TRACK 04 AUDIO
TITLE "Turning in Circles"
PERFORMER "Barclay James Harvest"
REM COMPOSER ""
INDEX 00 12:35:65
INDEX 01 12:37:65
TRACK 05 AUDIO
TITLE "Fact: The Closed Shop"
PERFORMER "Barclay James Harvest"
REM COMPOSER ""
INDEX 00 16:08:07
INDEX 01 16:09:40
TRACK 06 AUDIO
TITLE "In Search of England"
PERFORMER "Barclay James Harvest"
REM COMPOSER ""
INDEX 00 19:57:45
INDEX 01 19:59:00
TRACK 07 AUDIO
TITLE "Sip of Wine"
PERFORMER "Barclay James Harvest"
REM COMPOSER ""
INDEX 00 24:13:67
INDEX 01 24:17:25
TRACK 08 AUDIO
TITLE "Harbour"
PERFORMER "Barclay James Harvest"
REM COMPOSER ""
INDEX 00 28:46:20
INDEX 01 28:48:40
TRACK 09 AUDIO
TITLE "Science Fiction: Nova Lepidoptera"
PERFORMER "Barclay James Harvest"
REM COMPOSER ""
INDEX 00 32:33:60
INDEX 01 32:37:40
TRACK 10 AUDIO
TITLE "Giving It Up"
PERFORMER "Barclay James Harvest"
REM COMPOSER ""
INDEX 00 38:35:37
INDEX 01 38:36:12
TRACK 11 AUDIO
TITLE "Fiction: The Streets of San Francisco"
PERFORMER "Barclay James Harvest"
REM COMPOSER ""
INDEX 00 43:22:52
INDEX 01 43:25:40
[свернуть]

Лог проверки качества

-----------------------

DON'T MODIFY THIS FILE

-----------------------

PERFORMER: auCDtect Task Manager, ver. 1.5.1RC4 build 1.5.1.5
Copyright © 2008-2010 y-soft. All rights reserved
[Ссылки могут видеть только зарегистрированные и активированные пользователи.]
[Only registered and activated users can see links.]

ANALYZER: auCDtect: CD records authenticity detector, version 0.8.2
Copyright © 2004 Oleg Berngardt. All rights reserved.
Copyright © 2004 Alexander Djourik. All rights reserved.


FILE: Barclay James Harvest - XII.flac
Size: 291204662 Hash: 0BB735C64DE6900E22230E389AA6134A Accuracy: -m0
Conclusion: CDDA 100%
Signature: 107CA4DF7F841ACA554CCD34487A847B39DE57D4
[свернуть]

Спектр частот

[свернуть]

Скачать Barclay James Harvest - XII

[Ссылки могут видеть только зарегистрированные и активированные пользователи.]
[Only registered and activated users can see links.]
[свернуть]

Контрольная сумма (хеш-сумма) архива

MD5: b9ca75e97422c28169cc4300a84d692e
[свернуть]
My opinion of release: 9/10

Release info RInfo

Данный CD по всей видимости кустарного производства сделанный в России. По крайней мере, номер в каталоге нигде не указан + на обратной стороне упоминание [Ссылки могут видеть только зарегистрированные и активированные пользователи.]
[Only registered and activated users can see links.] Кто это такие? Непонятно.
Однако, я уверен в том, что это качественный рип диска выпущенного в 1984 на Polydor в Германии с номером в каталоге 821 941-2 [Ссылки могут видеть только зарегистрированные и активированные пользователи.]
[Only registered and activated users can see links.]
У диска DISCID 9A0B840B 100% совпадение по Accuraterip с Polydor 821 941-2

UPD
Это диск [Ссылки могут видеть только зарегистрированные и активированные пользователи.]
[Only registered and activated users can see links.] от российской пиратской компании [Ссылки могут видеть только зарегистрированные и активированные пользователи.]
[Only registered and activated users can see links.]


Последний раз редактировалось TAIFUN, 14.05.2020 в 16:59. Причина: Перезалив
Вверх
Пользователь сказал cпасибо:
sergych (13.05.2020)
 
  #2
Старый 13.05.2020, 18:56
sergych
Координатор
Досье
 
Аватар для sergych
По умолчанию Re: Barclay James Harvest - XII

Цитата: Сообщение от TAIFUN Посмотреть сообщение
Кто это такие?

[Ссылки могут видеть только зарегистрированные и активированные пользователи.]
[Only registered and activated users can see links.] Приятно то, что иногда делали качественно
__________________
TAIFUN.Wings of Soul

Вверх
Пользователь сказал cпасибо:
TAIFUN (13.05.2020)
  #3
Старый 13.05.2020, 20:15
TAIFUN
Admin
Досье
 
Аватар для TAIFUN
По умолчанию Re: Barclay James Harvest - XII

@sergych, тёзка, спасибо за инфо! Подкорректировал пост.

У меня есть ещё 2 диска с Barclay James Harvest, и один из них 100% от этой же пиратской конторы (наличие их значка на принте), второй скорей всего тоже их рук дело, судя по оформлению принта на самом CD (у всех трёх дисков одинаковый шаблон).
__________________
I love the music
FAQ по форуму
Правила форума
Mare liberum apertum - Море открыто для всех


Последний раз редактировалось TAIFUN, 13.05.2020 в 22:16.
Вверх
Пользователь сказал cпасибо:
sergych (13.05.2020)
Похожие темы
Тема Автор Раздел Ответов Последнее сообщение
Релиз John Lees' Barclay James Harvest - North PUPOKIN Progressive Rock 0 08.10.2013 08:24
Релиз Fallujah - The Harvest Wombs PUPOKIN Progressive Metal 0 22.11.2011 08:38
Альбом Barclay James Harvest - Time Honoured Ghost + Gone To Earth TAIFUN Progressive Rock 0 10.02.2011 17:44
Альбом Fleshkraft - First Harvest ReAl Death Metal 0 09.11.2008 15:32
Альбом Naglfar - Harvest ReAl Death Metal 0 11.09.2008 21:54


Метки
1978 , barclay james harvest , progressive rock , xii

Опции темы

Ваши права в разделе
Вы не можете создавать новые темы
Вы не можете отвечать в темах
Вы не можете прикреплять вложения
Вы не можете редактировать свои сообщения

Быстрый переход


Текущее время: 04:30. Часовой пояс GMT +3.

© 2008 - 2020 Taifun With Song
Powered by vBulletin® Version 3.8.10
Copyright ©2000 - 2020, vBulletin Solutions, Inc. Перевод: zCarot
При поддержке NIC.UA
Яндекс.Метрика