TAIFUN With Song - качественная и редкая музыка
Навигация
Alternative Metal Жанр является слиянием хэви-метала с альтернативным роком (в особенности с инди-роком 1980-х). Для альтернативного метала характерны и тяжёлые гитарные риффы, присущие металу, и черты экспериментальной музыки — нетрадиционные тексты песен, нечётный музыкальный размер, необычные технические приемы, неприятие условностей и традиций тяжёлой музыки, соединение метала с самыми разнообразными музыкальными жанрами.

А знаете ли Вы, что...
Почему Майкл Джексон получал половину доходов от продаж песен Beatles?
«В 1984 году на аукционе продавались издательские права на песни Beatles. Его выиграл Майкл Джексон, заплатив почти 50 миллионов долларов — больше, чем предлагал сам Пол Маккартни. С этого времени Джексон получал половину доходов от продаж Beatles (другую половину получали авторы песен, главным образом Маккартни). В 1995 году компания Sony выкупила у Джексона половину его прав, так что в последнее время он получал только четверть доходов.»
 
Опции темы

  #1
Старый 12.05.2020, 19:34
swint68
Релизёр
Досье
 
Аватар для swint68
FLAC In This Moment - Mother


2020 - In This Moment - Mother




Исполнитель/Artist: In This Moment
Альбом/Album: Mother
Год/Year: 2020
Жанр/Genre: Alternative Metal, Melodic Metalcore, Heavy Metal
Страна/Country: Япония
Рекорд-лейбл/Record label: Warner Music Japan Inc.
Номер в каталоге/Catalogue #: WPCR-18326
Формат/Format: Free Lossless Audio Codec (*.flac)
Качество/Quality: Lossless
Тип рипа/RIP Type: image+.cue
Продолжительность/Length: 00:54:24
Источник/Source: HaRD
Размер/Size: 391 MB

Сканы в комплекте

Треклист

01. The Beginning (Interlude)
02. Fly Like An Eagle
03. The Red Crusade (Interlude)
04. The In-Between
05. Legacy
06. We Will Rock You (feat. Maria Brink, Lzzy Hale & Taylor Momsen)
07. Mother
08. As Above, So Below
09. Born In Flames
10. God Is She
11. Holy Man
12. Hunting Grounds (feat. Joe Cotela Of Ded)
13. Lay Me Down
14. Into Dust
[свернуть]

Превью на YouTube

[свернуть]

EAC лог

Exact Audio Copy V1.1 from 23. June 2015

EAC extraction logfile from 30. April 2020, 8:20

In This Moment / Mother (WPCR-18326)-

Used drive : TSSTcorpDVDWBD SH-B123L Adapter: 0 ID: 4

Read mode : Secure
Utilize accurate stream : Yes
Defeat audio cache : Yes
Make use of C2 pointers : No

Read offset correction : 6
Overread into Lead-In and Lead-Out : No
Fill up missing offset samples with silence : Yes
Delete leading and trailing silent blocks : No
Null samples used in CRC calculations : Yes
Used interface : Installed external ASPI interface

Used output format : User Defined Encoder
Selected bitrate : 768 kBit/s
Quality : High
Add ID3 tag : No
Command line compressor : C:\Program Files (x86)\Exact Audio Copy\FLAC\FLAC.EXE
Additional command line options : -6 -V -T "ARTIST=%artist%" -T "TITLE=%title%" -T "ALBUM=%albumtitle%" -T "DATE=%year%" -T "TRACKNUMBER=%tracknr%" -T "GENRE=%genre%" -T "COMMENT=%comment%" -T "BAND=%albuminterpret%" -T "ALBUMARTIST=%albuminterpret%" -T "COMPOSER=%composer%" %haslyrics%--tag-from-file=LYRICS="%lyricsfile%"%haslyrics% -T "DISCNUMBER=%cdnumber%" -T "TOTALDISCS=%totalcds%" -T "TOTALTRACKS=%numtracks%" %hascover%--picture="%coverfile%"%hascover% %source% -o %dest%


TOC of the extracted CD

Track | Start | Length | Start sector | End sector
---------------------------------------------------------
1 | 0:00.00 | 1:27.23 | 0 | 6547
2 | 1:27.23 | 4:01.00 | 6548 | 24622
3 | 5:28.23 | 0:44.46 | 24623 | 27968
4 | 6:12.69 | 4:14.61 | 27969 | 47079
5 | 10:27.55 | 4:49.02 | 47080 | 68756
6 | 15:16.57 | 3:05.15 | 68757 | 82646
7 | 18:21.72 | 4:09.37 | 82647 | 101358
8 | 22:31.34 | 4:09.04 | 101359 | 120037
9 | 26:40.38 | 4:04.56 | 120038 | 138393
10 | 30:45.19 | 4:39.07 | 138394 | 159325
11 | 35:24.26 | 3:35.58 | 159326 | 175508
12 | 39:00.09 | 4:33.41 | 175509 | 196024
13 | 43:33.50 | 4:09.43 | 196025 | 214742
14 | 47:43.18 | 6:41.29 | 214743 | 244846


Range status and errors

Selected range

Filename E:\MUSIC\In This Moment - Mother (WPCR-18326)-.wav

Peak level 100.0 %
Extraction speed 3.2 X
Range quality 99.9 %
Test CRC 2B0596D0
Copy CRC 2B0596D0
Copy OK

No errors occurred


AccurateRip summary

Track 1 not present in database
Track 2 not present in database
Track 3 not present in database
Track 4 not present in database
Track 5 not present in database
Track 6 not present in database
Track 7 not present in database
Track 8 not present in database
Track 9 not present in database
Track 10 not present in database
Track 11 not present in database
Track 12 not present in database
Track 13 not present in database
Track 14 not present in database

None of the tracks are present in the AccurateRip database

End of status report

==== Log checksum 2237CC6C83C61C2D7C69EB62C460AE280D9E9C803A89D262B19F282CE0B96EA8 ====
[свернуть]

Файл CUE

REM GENRE "Hard Rock"
REM DATE 2020
REM DISCID B10CC00E
REM COMMENT "ExactAudioCopy v1.1"
PERFORMER "In This Moment"
TITLE "Mother (WPCR-18326)-"
FILE "In This Moment - Mother (WPCR-18326)-.flac" WAVE
TRACK 01 AUDIO
TITLE "The Beginning (Interlude)"
PERFORMER "In This Moment"
INDEX 01 00:00:00
TRACK 02 AUDIO
TITLE "Fly Like An Eagle"
PERFORMER "In This Moment"
INDEX 01 01:27:23
TRACK 03 AUDIO
TITLE "The Red Crusade (Interlude)"
PERFORMER "In This Moment"
INDEX 01 05:28:23
TRACK 04 AUDIO
TITLE "The In-Between"
PERFORMER "In This Moment"
INDEX 01 06:12:69
TRACK 05 AUDIO
TITLE "Legacy"
PERFORMER "In This Moment"
INDEX 01 10:27:55
TRACK 06 AUDIO
TITLE "We Will Rock You (Ft. Maria Brink, Lzzy Hale, And Taylor Momsen)"
PERFORMER "In This Moment"
INDEX 01 15:16:57
TRACK 07 AUDIO
TITLE "Mother"
PERFORMER "In This Moment"
INDEX 01 18:21:72
TRACK 08 AUDIO
TITLE "As Above, So Below"
PERFORMER "In This Moment"
INDEX 01 22:31:34
TRACK 09 AUDIO
TITLE "Born In Flames"
PERFORMER "In This Moment"
INDEX 01 26:40:38
TRACK 10 AUDIO
TITLE "God Is She"
PERFORMER "In This Moment"
INDEX 01 30:45:19
TRACK 11 AUDIO
TITLE "Holy Man"
PERFORMER "In This Moment"
INDEX 01 35:24:26
TRACK 12 AUDIO
TITLE "Hunting Grounds (Ft. Joe Cotela Of Ded)"
PERFORMER "In This Moment"
INDEX 01 39:00:09
TRACK 13 AUDIO
TITLE "Lay Me Down"
PERFORMER "In This Moment"
INDEX 01 43:33:50
TRACK 14 AUDIO
TITLE "Into Dust"
PERFORMER "In This Moment"
INDEX 01 47:43:18
[свернуть]

Лог проверки качества

-----------------------

DON'T MODIFY THIS FILE

-----------------------

PERFORMER: auCDtect Task Manager, ver. 1.6.0 RC1 build 1.6.0.1
Copyright © 2008-2010 y-soft. All rights reserved
[Ссылки могут видеть только зарегистрированные и активированные пользователи.]
[Only registered and activated users can see links.]

ANALYZER: auCDtect: CD records authenticity detector, version 0.8.2
Copyright © 2004 Oleg Berngardt. All rights reserved.
Copyright © 2004 Alexander Djourik. All rights reserved.


FILE: In This Moment - Mother (WPCR-18326)-.flac
Size: 376627034 Hash: 20FCE5096A353687B5EC050378A277B6 Accuracy: -m0
Conclusion: CDDA 100%
Signature: 5C6D2C93021D5DE9B50EBAE2282B08590CD83EA0
[свернуть]

Скачать In This Moment - Mother

[Ссылки могут видеть только зарегистрированные и активированные пользователи.]
[Only registered and activated users can see links.]
[свернуть]

Вверх
2 пользователя(ей) сказали cпасибо:
sergych (12.05.2020), TAIFUN (12.05.2020)
 
Похожие темы
Тема Автор Раздел Ответов Последнее сообщение
Релиз Mother Turtle - Mother Turtle PUPOKIN Progressive Rock 0 18.11.2013 08:21
Релиз Stars And Sons - Good Morning Mother PUPOKIN Indie Rock 0 05.04.2010 08:42
Релиз The Moon And Her Mother - The Moon And Her Mother PUPOKIN Indie Rock 0 10.02.2010 09:36
Мать слез / Mother of tears (2008) dmitriy89 Триллеры/Ужасы/Мистика 0 14.10.2008 18:43
Альбом Pink Floyd - Atom Heart Mother sergych Psychedelic Rock 0 05.10.2008 09:46


Метки
2020 , alternative metal , heavy metal , in this moment , melodic metalcore , mother

Опции темы

Ваши права в разделе
Вы не можете создавать новые темы
Вы не можете отвечать в темах
Вы не можете прикреплять вложения
Вы не можете редактировать свои сообщения

Быстрый переход


Текущее время: 03:58. Часовой пояс GMT +3.

© 2008 - 2020 Taifun With Song
Powered by vBulletin® Version 3.8.10
Copyright ©2000 - 2020, vBulletin Solutions, Inc. Перевод: zCarot
При поддержке NIC.UA
Яндекс.Метрика