TAIFUN With Song - качественная и редкая музыка
Навигация
Hard Rock То, что может восприниматься слушателем как «тяжесть» в хард-роке, достигается, в частности, за счет специфического звучания электрогитары (с такими эффектами, как например, дисторшн и овердрайв) и работы ритм-секции. «Классический» хард-рок обрёл формы в конце 1960-х — начале 1970-х годов в Великобритании. Классический хард-рок отличается от хеви-металла более мелодичным звучанием.

А знаете ли Вы, что...
Что значил жест «коза» до эпохи рока и металла?
«Жест «коза» существовал долгое время как магический знак для защиты от сглаза и злых духов. Ронни Джеймс Дио — солист групп Rainbow и Black Sabbath — был первым, кто показал этот жест на рок-концерте. Фанаты переняли его и теперь «коза» очень популярна среди рокеров и металлистов.»
 
Опции темы

  #1
Старый 01.04.2021, 20:03
swint68
Релизёр
Досье
 
Аватар для swint68
FLAC Whitesnake - The Rock Album [Japanese Edition]


2020 - Whitesnake - The Rock Album




Исполнитель/Artist: Whitesnake
Альбом/Album: The Rock Album [2020 Remix] [Japanese Edition]
Год/Year: 2020
Жанр/Genre: Hard Rock
Страна/Country: Япония
Рекорд-лейбл/Record label: Warner Music Japan Inc.
Номер в каталоге/Catalogue #: WPCR-18347
Формат/Format: Free Lossless Audio Codec (*.flac)
Качество/Quality: Lossless
Тип рипа/RIP Type: image+.cue
Продолжительность/Length: 01:18:16
Источник/Source: HaRD
Размер/Size: 635 MB

Сканы в комплекте

Треклист

01. Still Of The Night
02. Best Years
03. Tell Me How
04. Love Ain't No Stranger
05. All Or Nothing
06. Give Me All Your Love
07. Can You Hear The Wind Blow
08. Restless Heart
09. Anything You Want
10. Here I Go Again
11. Judgment Day
12. She Give Me
13. Crying
14. Can't Stop Now
15. Always The Same
16. Forevermore
[свернуть]

Превью на YouTube

[свернуть]

EAC лог

Exact Audio Copy V1.5 from 20. February 2020

EAC extraction logfile from 9. March 2021, 23:24

Whitesnake / The Rock Album (WPCR-18347)

Used drive : TSSTcorpDVDWBD SH-B123L Adapter: 1 ID: 1

Read mode : Secure
Utilize accurate stream : Yes
Defeat audio cache : Yes
Make use of C2 pointers : No

Read offset correction : 6
Overread into Lead-In and Lead-Out : No
Fill up missing offset samples with silence : Yes
Delete leading and trailing silent blocks : No
Null samples used in CRC calculations : Yes
Used interface : Native Win32 interface for Win NT & 2000

Used output format : User Defined Encoder
Selected bitrate : 896 kBit/s
Quality : High
Add ID3 tag : No
Command line compressor : C:\Program Files (x86)\Exact Audio Copy\FLAC\FLAC.EXE
Additional command line options : -6 -V -T "ARTIST=%artist%" -T "TITLE=%title%" -T "ALBUM=%albumtitle%" -T "DATE=%year%" -T "TRACKNUMBER=%tracknr%" -T "GENRE=%genre%" -T "COMMENT=%comment%" -T "BAND=%albuminterpret%" -T "ALBUMARTIST=%albuminterpret%" -T "COMPOSER=%composer%" %haslyrics%--tag-from-file=LYRICS="%lyricsfile%"%haslyrics% -T "DISCNUMBER=%cdnumber%" -T "TOTALDISCS=%totalcds%" -T "TOTALTRACKS=%numtracks%" %hascover%--picture="%coverfile%"%hascover% %source% -o %dest%


TOC of the extracted CD

Track | Start | Length | Start sector | End sector
---------------------------------------------------------
1 | 0:00.00 | 6:49.73 | 0 | 30747
2 | 6:49.73 | 5:16.11 | 30748 | 54458
3 | 12:06.09 | 5:27.39 | 54459 | 79022
4 | 17:33.48 | 4:15.05 | 79023 | 98152
5 | 21:48.53 | 3:47.49 | 98153 | 115226
6 | 25:36.27 | 3:27.02 | 115227 | 130753
7 | 29:03.29 | 5:07.31 | 130754 | 153809
8 | 34:10.60 | 4:51.74 | 153810 | 175708
9 | 39:02.59 | 4:12.35 | 175709 | 194643
10 | 43:15.19 | 4:32.22 | 194644 | 215065
11 | 47:47.41 | 5:18.40 | 215066 | 238955
12 | 53:06.06 | 4:11.53 | 238956 | 257833
13 | 57:17.59 | 5:39.20 | 257834 | 283278
14 | 62:57.04 | 3:26.16 | 283279 | 298744
15 | 66:23.20 | 4:46.06 | 298745 | 320200
16 | 71:09.26 | 7:07.10 | 320201 | 352235


Range status and errors

Selected range

Filename E:\MUSIC\Whitesnake - The Rock Album (WPCR-18347).wav

Peak level 100.0 %
Extraction speed 8.6 X
Range quality 99.9 %
Test CRC B05CEE2A
Copy CRC B05CEE2A
Copy OK

No errors occurred


AccurateRip summary

Track 1 accurately ripped (confidence 2) [E8744F4A] (AR v2)
Track 2 accurately ripped (confidence 2) [5D3AE166] (AR v2)
Track 3 accurately ripped (confidence 2) [3B1F79E7] (AR v2)
Track 4 accurately ripped (confidence 2) [911F4585] (AR v2)
Track 5 accurately ripped (confidence 2) [E67A6C73] (AR v2)
Track 6 accurately ripped (confidence 2) [46B52B3F] (AR v2)
Track 7 accurately ripped (confidence 2) [AB24CA4B] (AR v2)
Track 8 accurately ripped (confidence 2) [BBC9232A] (AR v2)
Track 9 accurately ripped (confidence 2) [247B2799] (AR v2)
Track 10 accurately ripped (confidence 2) [7F09791F] (AR v2)
Track 11 accurately ripped (confidence 2) [69CD8949] (AR v2)
Track 12 accurately ripped (confidence 2) [79C215D9] (AR v2)
Track 13 accurately ripped (confidence 2) [F64D5DAC] (AR v2)
Track 14 accurately ripped (confidence 2) [89E92761] (AR v2)
Track 15 accurately ripped (confidence 2) [F92E79C1] (AR v2)
Track 16 accurately ripped (confidence 2) [715926F4] (AR v2)

All tracks accurately ripped

End of status report

---- CUETools DB Plugin V2.1.6

[CTDB TOCID: .TEKDCMlnfOcgmwNyY0vmXxwUjw-] found
Submit result: .TEKDCMlnfOcgmwNyY0vmXxwUjw- has been confirmed
Track | CTDB Status
1 | (87/87) Accurately ripped
2 | (87/87) Accurately ripped
3 | (86/87) Accurately ripped
4 | (87/87) Accurately ripped
5 | (87/87) Accurately ripped
6 | (87/87) Accurately ripped
7 | (87/87) Accurately ripped
8 | (87/87) Accurately ripped
9 | (87/87) Accurately ripped
10 | (87/87) Accurately ripped
11 | (87/87) Accurately ripped
12 | (87/87) Accurately ripped
13 | (87/87) Accurately ripped
14 | (87/87) Accurately ripped
15 | (87/87) Accurately ripped
16 | (85/87) Accurately ripped


==== Log checksum 39D868A861AEA04A58F615794A908FFD5A98D760536F5AEF59BB050FBDFBCF1C ====
[свернуть]

Файл CUE

REM GENRE "Hard Rock"
REM DATE 2020
REM DISCID F9125810
REM COMMENT "ExactAudioCopy v1.5"
PERFORMER "Whitesnake"
TITLE "The Rock Album (WPCR-18347)"
REM COMPOSER ""
FILE "Whitesnake - The Rock Album (WPCR-18347).flac" WAVE
TRACK 01 AUDIO
TITLE "Still of the Night"
PERFORMER "Whitesnake"
REM COMPOSER ""
INDEX 01 00:00:00
TRACK 02 AUDIO
TITLE "Best Years"
PERFORMER "Whitesnake"
REM COMPOSER ""
INDEX 01 06:49:73
TRACK 03 AUDIO
TITLE "Tell Me How"
PERFORMER "Whitesnake"
REM COMPOSER ""
INDEX 01 12:06:09
TRACK 04 AUDIO
TITLE "Love Ain’t No Stranger"
PERFORMER "Whitesnake"
REM COMPOSER ""
INDEX 01 17:33:48
TRACK 05 AUDIO
TITLE "All or Nothing"
PERFORMER "Whitesnake"
REM COMPOSER ""
INDEX 01 21:48:53
TRACK 06 AUDIO
TITLE "Give Me All Your Love"
PERFORMER "Whitesnake"
REM COMPOSER ""
INDEX 01 25:36:27
TRACK 07 AUDIO
TITLE "Can You Hear the Wind Blow"
PERFORMER "Whitesnake"
REM COMPOSER ""
INDEX 01 29:03:29
TRACK 08 AUDIO
TITLE "Restless Heart"
PERFORMER "Whitesnake"
REM COMPOSER ""
INDEX 01 34:10:60
TRACK 09 AUDIO
TITLE "Anything You Want"
PERFORMER "Whitesnake"
REM COMPOSER ""
INDEX 01 39:02:59
TRACK 10 AUDIO
TITLE "Here I Go Again"
PERFORMER "Whitesnake"
REM COMPOSER ""
INDEX 01 43:15:19
TRACK 11 AUDIO
TITLE "Judgement Day"
PERFORMER "Whitesnake"
REM COMPOSER ""
INDEX 01 47:47:41
TRACK 12 AUDIO
TITLE "She Give Me"
PERFORMER "Whitesnake"
REM COMPOSER ""
INDEX 01 53:06:06
TRACK 13 AUDIO
TITLE "Crying"
PERFORMER "Whitesnake"
REM COMPOSER ""
INDEX 01 57:17:59
TRACK 14 AUDIO
TITLE "Can’t Stop Now"
PERFORMER "Whitesnake"
REM COMPOSER ""
INDEX 01 62:57:04
TRACK 15 AUDIO
TITLE "Always the Same"
PERFORMER "Whitesnake"
REM COMPOSER ""
INDEX 01 66:23:20
TRACK 16 AUDIO
TITLE "Forevermore"
PERFORMER "Whitesnake"
REM COMPOSER ""
INDEX 01 71:09:26
[свернуть]

Лог проверки качества

-----------------------

DON'T MODIFY THIS FILE

-----------------------

PERFORMER: auCDtect Task Manager, ver. 1.6.0 RC1 build 1.6.0.1
Copyright © 2008-2010 y-soft. All rights reserved
[Ссылки могут видеть только зарегистрированные и активированные пользователи.]
[Only registered and activated users can see links.]

ANALYZER: auCDtect: CD records authenticity detector, version 0.8.2
Copyright © 2004 Oleg Berngardt. All rights reserved.
Copyright © 2004 Alexander Djourik. All rights reserved.


FILE: Whitesnake - The Rock Album (WPCR-18347).flac
Size: 606510168 Hash: 7AF477316922646F04C81F5D699B6E29 Accuracy: -m0
Conclusion: CDDA 99%
Signature: 4BACFAE13A6803030F902F744E63F0A15E540C96
[свернуть]

Скачать Whitesnake - The Rock Album

[Ссылки могут видеть только зарегистрированные и активированные пользователи.]
[Only registered and activated users can see links.]
[свернуть]

Вверх
3 пользователя(ей) сказали cпасибо:
Lighting1981 (02.04.2021), sergych (02.04.2021), TAIFUN (02.04.2021)
 
Похожие темы
Тема Автор Раздел Ответов Последнее сообщение
Альбом Whitesnake - The Blues Album [Japanese Edition] swint68 Hard Rock 0 17.03.2021 20:34
Релиз Michael Schenker's Temple Of Rock - Bridge The Gap [Japanese Edition] PUPOKIN Hard Rock 0 25.11.2013 10:23
Релиз Stryper - No More Hell To Pay [Japanese Edition] PUPOKIN Heavy Metal 0 08.11.2013 10:09
Релиз Sebadoh - Defend Yourself [Japanese Edition] PUPOKIN Indie Rock 0 20.09.2013 10:30
Релиз ReinXeed - A New World [Japanese Edition] PUPOKIN Power Metal 0 07.09.2013 10:37


Метки
2020 , hard rock , japanese edition , whitesnake

Опции темы

Ваши права в разделе
Вы не можете создавать новые темы
Вы не можете отвечать в темах
Вы не можете прикреплять вложения
Вы не можете редактировать свои сообщения

Быстрый переход


Текущее время: 08:09. Часовой пояс GMT +3.

© 2008 - 2020 Taifun With Song
Powered by vBulletin® Version 3.8.10
Copyright ©2000 - 2021, vBulletin Solutions, Inc. Перевод: zCarot
При поддержке NIC.UA
Яндекс.Метрика
0.23396 сек. | MySQL: 17