TAIFUN With Song - качественная и редкая музыка
Навигация
Power Metal Сложилось направление во второй половине 80-х годов XX века в Западной Европе. Отличается более высокой скоростью исполнения, чем «классический» хэви-метал и большей мелодичностью, чем спид-метал.

А знаете ли Вы, что...
Какая консерватория носит имя композитора, которому отказала в приёме?
«Миланская консерватория носит имя Джузеппе Верди, хотя в 1833 году отказала ему в зачислении. Юному Верди было сказано, что он на 4 года старше обычного возраста принимаемых, не является гражданином Ломбардо-Венецианского королевства и лишён музыкального таланта.»
 
Опции темы

  #1
Старый 24.03.2021, 10:41
swint68
Релизёр
Досье
 
Аватар для swint68
FLAC Orphan Gypsy - Aftermath [Japanese Edition]


2003 - Orphan Gypsy - Aftermath




Исполнитель/Artist: Orphan Gypsy
Альбом/Album: Aftermath [Japanese Edition]
Год/Year: 2003
Жанр/Genre: Power Metal
Страна/Country: Япония
Рекорд-лейбл/Record label: Rubicon Music
Номер в каталоге/Catalogue #: RBNCD-1006
Формат/Format: Free Lossless Audio Codec (*.flac)
Качество/Quality: Lossless
Тип рипа/RIP Type: image+.cue
Продолжительность/Length: 00:54:37
Источник/Source: Ilijan
Размер/Size: 564 MB

Сканы в комплекте

Треклист

01. Darkland
02. Past Time Memories
03. Nightwalker
04. Thorn Of Love
05. The Promise
06. Nothing More
07. The Aftermath
08. Satans Own
09. Murder In Cold December
10. Under The Sun
11. Silence
[свернуть]

Превью на YouTube

[свернуть]

EAC лог

Exact Audio Copy V0.99 prebeta 5 from 4. May 2009

EAC extraction logfile from 21. July 2012, 19:50

Orphan Gypsy / Aftermath

Used drive : ATAPI iHAS624 B Adapter: 2 ID: 0

Read mode : Secure
Utilize accurate stream : Yes
Defeat audio cache : Yes
Make use of C2 pointers : No

Read offset correction : 6
Overread into Lead-In and Lead-Out : No
Fill up missing offset samples with silence : Yes
Delete leading and trailing silent blocks : No
Null samples used in CRC calculations : Yes
Used interface : Installed external ASPI interface

Used output format : User Defined Encoder
Selected bitrate : 40 kBit/s
Quality : High
Add ID3 tag : No
Command line compressor : C:\Program Files\Exact Audio Copy\Flac\flac.exe
Additional command line options : -6 -V %s


TOC of the extracted CD

Track | Start | Length | Start sector | End sector
---------------------------------------------------------
1 | 0:00.00 | 4:54.02 | 0 | 22051
2 | 4:54.02 | 5:29.18 | 22052 | 46744
3 | 10:23.20 | 5:28.65 | 46745 | 71409
4 | 15:52.10 | 3:24.10 | 71410 | 86719
5 | 19:16.20 | 6:23.51 | 86720 | 115495
6 | 25:39.71 | 4:35.17 | 115496 | 136137
7 | 30:15.13 | 5:26.06 | 136138 | 160593
8 | 35:41.19 | 5:37.06 | 160594 | 185874
9 | 41:18.25 | 3:55.59 | 185875 | 203558
10 | 45:14.09 | 4:04.72 | 203559 | 221930
11 | 49:19.06 | 5:18.47 | 221931 | 245827
12 | 57:09.53 | 9:31.48 | 257228 | 300100


Range status and errors

Selected range

Filename D:\Download\Orphan Gypsy - Aftermath.wav

Peak level 100.0 %
Range quality 100.0 %
Copy CRC 2B4DFCEB
Copy OK

No errors occurred


AccurateRip summary

Track 1 cannot be verified as accurate (confidence 1) [CA370D48], AccurateRip returned [C78095E7]
Track 2 cannot be verified as accurate (confidence 1) [345C7BB9], AccurateRip returned [8EA53B85]
Track 3 cannot be verified as accurate (confidence 1) [8A90C1FE], AccurateRip returned [55091BE5]
Track 4 cannot be verified as accurate (confidence 1) [176BC24B], AccurateRip returned [4209201A]
Track 5 cannot be verified as accurate (confidence 1) [B53FAF51], AccurateRip returned [8089E8BF]
Track 6 cannot be verified as accurate (confidence 1) [F4426F70], AccurateRip returned [90428447]
Track 7 cannot be verified as accurate (confidence 1) [252472FF], AccurateRip returned [E8A0B2EA]
Track 8 cannot be verified as accurate (confidence 1) [79812941], AccurateRip returned [DC3D9DA9]
Track 9 cannot be verified as accurate (confidence 1) [EFC3726C], AccurateRip returned [62E80848]
Track 10 cannot be verified as accurate (confidence 1) [FA99538E], AccurateRip returned [138A77F7]
Track 11 cannot be verified as accurate (confidence 1) [75DF8707], AccurateRip returned [8DD431EC]

No tracks could be verified as accurate
You may have a different pressing from the one(s) in the database

End of status report
[свернуть]

Файл CUE

REM GENRE "Power Metal"
REM DATE 2003
REM DISCID A20FA10C
REM COMMENT "ExactAudioCopy v0.99pb5"
PERFORMER "Orphan Gypsy"
TITLE "Aftermath"
FILE "Orphan Gypsy - Aftermath.flac" WAVE
TRACK 01 AUDIO
TITLE "Darkland"
PERFORMER "Orphan Gypsy"
INDEX 01 00:00:00
TRACK 02 AUDIO
TITLE "Past Time Memories"
PERFORMER "Orphan Gypsy"
INDEX 01 04:54:02
TRACK 03 AUDIO
TITLE "Nightwalker"
PERFORMER "Orphan Gypsy"
INDEX 01 10:23:20
TRACK 04 AUDIO
TITLE "Thorn Of Love"
PERFORMER "Orphan Gypsy"
INDEX 01 15:52:10
TRACK 05 AUDIO
TITLE "The Promise"
PERFORMER "Orphan Gypsy"
INDEX 01 19:16:20
TRACK 06 AUDIO
TITLE "Nothing More"
PERFORMER "Orphan Gypsy"
INDEX 01 25:39:71
TRACK 07 AUDIO
TITLE "The Aftermath"
PERFORMER "Orphan Gypsy"
INDEX 01 30:15:13
TRACK 08 AUDIO
TITLE "Satans Own"
PERFORMER "Orphan Gypsy"
INDEX 01 35:41:19
TRACK 09 AUDIO
TITLE "Murder In Cold December"
PERFORMER "Orphan Gypsy"
INDEX 01 41:18:25
TRACK 10 AUDIO
TITLE "Under The Sun"
PERFORMER "Orphan Gypsy"
INDEX 01 45:14:09
TRACK 11 AUDIO
TITLE "Silence"
PERFORMER "Orphan Gypsy"
INDEX 01 49:19:06
[свернуть]

Лог проверки качества

-----------------------

DON'T MODIFY THIS FILE

-----------------------

PERFORMER: auCDtect Task Manager, ver. 1.6.0 RC1 build 1.6.0.1
Copyright © 2008-2010 y-soft. All rights reserved
[Ссылки могут видеть только зарегистрированные и активированные пользователи.]
[Only registered and activated users can see links.]

ANALYZER: auCDtect: CD records authenticity detector, version 0.8.2
Copyright © 2004 Oleg Berngardt. All rights reserved.
Copyright © 2004 Alexander Djourik. All rights reserved.


FILE: Orphan Gypsy - Aftermath.flac
Size: 420893513 Hash: 08FA28B8F50CFB34D9C4502156598748 Accuracy: -m0
Conclusion: CDDA 100%
Signature: 1FE17802C89AF9075CD7C5109C6A82549C195677
[свернуть]

Скачать Orphan Gypsy - Aftermath

[Ссылки могут видеть только зарегистрированные и активированные пользователи.]
[Only registered and activated users can see links.]
[свернуть]

Вверх
Пользователь сказал cпасибо:
sergych (25.03.2021)
 
Похожие темы
Тема Автор Раздел Ответов Последнее сообщение
Альбом The Rolling Stones - Aftermath Afula Blues Rock 0 30.08.2011 09:39
Релиз Hillsong United - Aftermath PUPOKIN Alternative Rock 0 02.03.2011 11:53
Релиз Axenstar - Aftermath PUPOKIN Power Metal 0 02.02.2011 10:45
Альбом Armik - Gypsy Flame Alex_vn69 Classical 0 04.05.2008 00:17
Chronicles Continued - The Aftermath DarkDan Drum & Bass 0 21.04.2008 20:21


Метки
2003 , aftermath , japanese edition , orphan gypsy , power metal

Опции темы

Ваши права в разделе
Вы не можете создавать новые темы
Вы не можете отвечать в темах
Вы не можете прикреплять вложения
Вы не можете редактировать свои сообщения

Быстрый переход


Текущее время: 07:38. Часовой пояс GMT +3.

© 2008 - 2020 Taifun With Song
Powered by vBulletin® Version 3.8.10
Copyright ©2000 - 2021, vBulletin Solutions, Inc. Перевод: zCarot
При поддержке NIC.UA
Яндекс.Метрика
0.37394 сек. | MySQL: 17