TAIFUN With Song - качественная и редкая музыка
Навигация
Вернуться   TAIFUN With Song - качественная и редкая музыка > Music (обменник) > Rock > Progressive Rock
Расширенный поиск
Progressive Rock Единственной универсальной характеристикой прогрессивного рока является усложнение музыкальной формы. Это проявляется в удлиннении и усложнении музыкальных пьес, тяготении к циклическим формам академической музыки; расширении репертуара используемых тембров, усложнении метра и ритма, использовании нетрадиционных для рока мелодических и гармонических решений; поэзии, уходящей от тем развлекательной музыки и тяготеющей к философским «вечным темам», фантастической и фентезийной тематике; переплетении с классической и современной академической музыкой, джазом.

А знаете ли Вы, что...
Зачем менеджер Элвиса Пресли распространял значки с надписью «I hate Elvis»?
«Американский продюсер Том Паркер распознал экстраординарный талант Элвиса Пресли, когда тот был ещё малоизвестным и несовершеннолетним, и во многом способствовал его продвижению и обретению статуса суперзвезды. Для максимизации доходов Элвиса Паркер применил много нестандартных методов. Например, он выпустил большим тиражом значки с надписью «I hate Elvis» («Я ненавижу Элвиса»), чтобы извлечь деньги из тех, кто никогда бы не купил его пластинки.»
 
Опции темы

  #1
Старый 03.05.2019, 08:17
sergych
Координатор
Досье
 
Аватар для sergych
Релиз The Alan Parsons Project - Limelight. The Best Of Vol.2


1987(1993) - The Alan Parsons Project - Limelight. The Best Of Vol.2




Исполнитель/Artist: The Alan Parsons Project
Альбом/Album: Limelight. The Best Of Vol.2
Год/Year: 1987
Ремастеринг/Remaster: 1993
Жанр/Genre: Art rock, Progressive rock
Страна/Country: Япония
Рекорд-лейбл/Record label: Arista / BMG Victor
Номер в каталоге/Catalogue #: BVCA-1014 / 74321-16827-2
Формат/Format: Free Lossless Audio Codec (*.flac)
Качество/Quality: Lossless
Тип рипа/RIP Type: image+.cue
Продолжительность/Length: 00:49:46
Источник/Source: Собственный рип
Размер/Size: 286.2 MB

Сканы в комплекте

Треклист

01. Limelight [0:04:40.63]
02. The Same Old Sun [0:05:25.20]
03. Ammonia Avenue [0:06:32.55]
04. Mammagamma [0:03:35.25]
05. Since The Last Goodbye [0:04:36.25]
06. I Robot [0:06:03.25]
07. Prime Time [0:05:03.00]
08. Hawkeye [0:03:47.50]
09. The Turn Of A Friendly Card [0:02:40.45]
10. Silence And I [0:07:20.67]
[свернуть]

Превью на YouTube

[свернуть]

EAC лог

Exact Audio Copy V1.3 from 2. September 2016

EAC extraction logfile from 1. May 2019, 19:55

The Alan Parsons Project / Limelight. The Best Of Vol.2

Used drive : PIONEER DVD-RW DVR-220L Adapter: 1 ID: 0

Read mode : Secure
Utilize accurate stream : Yes
Defeat audio cache : Yes
Make use of C2 pointers : No

Read offset correction : 6
Overread into Lead-In and Lead-Out : No
Fill up missing offset samples with silence : Yes
Delete leading and trailing silent blocks : No
Null samples used in CRC calculations : Yes
Used interface : Installed external ASPI interface

Used output format : User Defined Encoder
Selected bitrate : 1024 kBit/s
Quality : High
Add ID3 tag : No
Command line compressor : C:\Program Files (x86)\Exact Audio Copy\Flac\flac.exe
Additional command line options : -6 -V -T "ARTIST=%artist%" -T "TITLE=%title%" -T "ALBUM=%albumtitle%" -T "DATE=%year%" -T "TRACKNUMBER=%tracknr%" -T "GENRE=%genre%" -T "COMMENT=%comment%" -T "BAND=%albuminterpret%" -T "ALBUMARTIST=%albuminterpret%" -T "COMPOSER=%composer%" %haslyrics%--tag-from-file=LYRICS="%lyricsfile%"%haslyrics% -T "DISCNUMBER=%cdnumber%" -T "TOTALDISCS=%totalcds%" -T "TOTALTRACKS=%numtracks%" %hascover%--picture="%coverfile%"%hascover% %source% -o %dest%


TOC of the extracted CD

Track | Start | Length | Start sector | End sector
---------------------------------------------------------
1 | 0:00.37 | 4:40.63 | 37 | 21099
2 | 4:41.25 | 5:25.20 | 21100 | 45494
3 | 10:06.45 | 6:32.55 | 45495 | 74949
4 | 16:39.25 | 3:35.25 | 74950 | 91099
5 | 20:14.50 | 4:36.25 | 91100 | 111824
6 | 24:51.00 | 6:03.25 | 111825 | 139074
7 | 30:54.25 | 5:03.00 | 139075 | 161799
8 | 35:57.25 | 3:47.50 | 161800 | 178874
9 | 39:45.00 | 2:40.45 | 178875 | 190919
10 | 42:25.45 | 7:20.67 | 190920 | 223986


Range status and errors

Selected range

Filename C:\mm\The Alan Parsons Project\1987(1993) - Limelight. The Best Of Vol.2 [BVCA-1014_74321-16827-2]\The Alan Parsons Project - Limelight. The Best Of Vol.2.wav

Peak level 91.2 %
Extraction speed 7.6 X
Range quality 100.0 %
Test CRC 115EA971
Copy CRC 115EA971
Copy OK

No errors occurred


AccurateRip summary

Track 1 accurately ripped (confidence 4) [9AC00FB3] (AR v2)
Track 2 accurately ripped (confidence 4) [5CC47E26] (AR v2)
Track 3 accurately ripped (confidence 4) [F2DF300F] (AR v2)
Track 4 accurately ripped (confidence 4) [AB18A8D6] (AR v2)
Track 5 accurately ripped (confidence 4) [D7D210BC] (AR v2)
Track 6 accurately ripped (confidence 4) [C71B7A67] (AR v2)
Track 7 accurately ripped (confidence 4) [0CBDC055] (AR v2)
Track 8 accurately ripped (confidence 4) [C059C6F1] (AR v2)
Track 9 accurately ripped (confidence 4) [AA895778] (AR v2)
Track 10 accurately ripped (confidence 4) [54912FBB] (AR v2)

All tracks accurately ripped

End of status report
[свернуть]

Файл CUE

REM GENRE "Art-Rock/Progressive Rock"
REM DATE 1993
REM DISCID 850BAA0A
REM COMMENT "ExactAudioCopy v1.3"
PERFORMER "The Alan Parsons Project"
TITLE "Limelight. The Best Of Vol.2"
REM COMPOSER ""
FILE "The Alan Parsons Project - Limelight. The Best Of Vol.2.flac" WAVE
TRACK 01 AUDIO
TITLE "Limelight"
PERFORMER "The Alan Parsons Project"
REM COMPOSER ""
INDEX 00 00:00:00
INDEX 01 00:00:37
TRACK 02 AUDIO
TITLE "The Same Old Sun"
PERFORMER "The Alan Parsons Project"
REM COMPOSER ""
INDEX 01 04:41:25
TRACK 03 AUDIO
TITLE "Ammonia Avenue"
PERFORMER "The Alan Parsons Project"
REM COMPOSER ""
INDEX 01 10:06:45
TRACK 04 AUDIO
TITLE "Mammagamma"
PERFORMER "The Alan Parsons Project"
REM COMPOSER ""
INDEX 01 16:39:25
TRACK 05 AUDIO
TITLE "Since The Last Goodbye"
PERFORMER "The Alan Parsons Project"
REM COMPOSER ""
INDEX 01 20:14:50
TRACK 06 AUDIO
TITLE "I Robot"
PERFORMER "The Alan Parsons Project"
REM COMPOSER ""
INDEX 01 24:51:00
TRACK 07 AUDIO
TITLE "Prime Time"
PERFORMER "The Alan Parsons Project"
REM COMPOSER ""
INDEX 01 30:54:25
TRACK 08 AUDIO
TITLE "Hawkeye"
PERFORMER "The Alan Parsons Project"
REM COMPOSER ""
INDEX 01 35:57:25
TRACK 09 AUDIO
TITLE "The Turn Of A Friendly Card"
PERFORMER "The Alan Parsons Project"
REM COMPOSER ""
INDEX 01 39:45:00
TRACK 10 AUDIO
TITLE "Silence And I"
PERFORMER "The Alan Parsons Project"
REM COMPOSER ""
INDEX 01 42:25:45
[свернуть]

Лог проверки качества

AUDIOCHECKER v2.0 beta (build 457) - by Dester - [Ссылки могут видеть только зарегистрированные и активированные пользователи.]
[Only registered and activated users can see links.]
~~~~~~~~~~~~~~~~~~~~~~~~~~~~~~~~~~
-=== НЕ РЕДАКТИРУЙТЕ ЭТОТ ФАЙЛ! ===-

Путь: ...\1987(1993) - Limelight. The Best Of Vol.2 [BVCA-1014_74321-16827-2]

1 -=- The Alan Parsons Project - Limelight. The Best Of Vol.2.flac -=- MPEG (95%)

228676756
[свернуть]

Спектр частот

[свернуть]

Скачать The Alan Parsons Project - Limelight. The Best Of Vol.2

[Ссылки могут видеть только зарегистрированные и активированные пользователи.]
[Only registered and activated users can see links.]

password: sergych
[свернуть]

Контрольная сумма (хеш-сумма) архива

MD5: 949539775c3feabf14376efddefa3aa2
[свернуть]
My opinion of release: 9/10
__________________
TAIFUN.Wings of Soul

Вверх
4 пользователя(ей) сказали cпасибо:
Guilli (03.05.2019), johnsilver (03.05.2019), swint68 (04.05.2019), TAIFUN (03.05.2019)
Похожие темы
Тема Автор Раздел Ответов Последнее сообщение
Альбом The Alan Parsons Project - Eye In The Sky sergych Progressive Rock 3 20.09.2015 09:46
Альбом The Alan Parsons Project - I Robot sergych Progressive Rock 3 23.02.2014 11:52
Релиз The Alan Parsons Project - Stereotomy aheron Progressive Rock 0 30.06.2013 12:10
Альбом The Alan Parsons Project - EVE sergych Progressive Rock 0 24.06.2010 20:08
Инфо The Alan Parsons Project sergych Rock [FAQ] 0 07.09.2008 09:38


Метки
1987 , art rock , limelight. the best of vol.2 , progressive rock , the alan parsons project

Опции темы

Ваши права в разделе
Вы не можете создавать новые темы
Вы не можете отвечать в темах
Вы не можете прикреплять вложения
Вы не можете редактировать свои сообщения

Быстрый переход



Текущее время: 17:04. Часовой пояс GMT +3.
Powered by vBulletin® Version 3.8.10
Copyright ©2000 - 2019, vBulletin Solutions, Inc. Перевод: zCarot
© 2008 - 2019 Taifun With Song
Яндекс.Метрика