TAIFUN With Song - качественная и редкая музыка
Навигация
Country Кантри объединяет две разновидности американского фольклора — это музыка белых поселенцев, обосновавшихся в Новом Свете в XVII—XVIII вв. и ковбойские баллады Дикого Запада. В этой музыке сильно наследие елизаветинских мадригалов, ирландской и шотландской народной музыки. Основные музыкальные инструменты этого стиля — гитара, банджо и скрипка.

А знаете ли Вы, что...
Почему оркестры американских театров не исполняют национальный марш?
««Звёзды и полосы навсегда» — это самый известный патриотический марш США. Тем не менее, в американских театрах и цирках оркестр никогда не исполнит эту мелодию просто так. Она зарезервирована в качестве сигнала бедствия о чрезвычайной ситуации, например, пожаре, чтобы персонал мог начать эвакуацию зрителей без паники.»
 
Опции темы

  #1
Старый 20.04.2019, 07:25
sergych
Координатор
Досье
 
Аватар для sergych
Релиз Shania Twain - Now


2017 - Shania Twain - Now




Исполнитель/Artist: Shania Twain
Альбом/Album: Now
Год/Year: 2017
Жанр/Genre: Country, pop rock, reggae, electropop
Страна/Country: Соединённые Штаты
Рекорд-лейбл/Record label: Mercury Nashville / Universal Music
Номер в каталоге/Catalogue #: B0026390-02
Формат/Format: Free Lossless Audio Codec (*.flac)
Качество/Quality: Lossless
Тип рипа/RIP Type: image+.cue
Продолжительность/Length: 00:41:31
Источник/Source: Собственный рип
Размер/Size: 321.0 MB

Сканы в комплекте

Треклист

01. Swingin' With My Eyes Closed [0:03:33.05]
02. Home Now [0:03:21.29]
03. Light Of My Life [0:03:36.65]
04. Poor Me [0:03:21.21]
05. Who's Gonna Be Your Girl [0:04:13.26]
06. More Fun [0:03:38.11]
07. I'm Alright [0:03:51.54]
08. Roll Me On The River [0:03:06.28]
09. We Got Something They Don't [0:03:28.62]
10. You Can't Buy Love [0:02:39.32]
11. Life's About to Get Good [0:03:40.12]
12. Soldier [0:03:00.03]
[свернуть]

Превью на YouTube

[свернуть]

Исполнители/Performers

Shania Twain – lead vocals, background vocals, electric guitar, keyboards, handclapping
Dan Book, Jason Wade, Matthew Koma – background vocals
Ron Aniello – acoustic guitar, baritone guitar, bass, drums, electric guitar, hammer, keyboards, organ, piano, Rhodes piano, synthesizer, synthesizer strings, Wurlitzer
Jimmy Baldwin – tenor saxophone
Eli Beaird – bass
Roy Bittan – piano
Dan Book – keyboards
Roget Chahayed – piano, synthesizer
Jude Cole – acoustic guitar
Max Collins – bass, drums
Adam Coltman, Tom Culm – handclapping
Eric Darken – chimes, percussion, vibraphone
George Deoring – ukulele
Kris Donegan – acoustic guitar, electric guitar, tiple
Ian Fitchuk – drums, organ, piano
Michael Freeman – electric guitar
Matthew Gooderham – handclapping
Jake Gosling – drums, Guiro, handclapping, organ, Rhodes piano, percussion, piano, synthesizer, tambourine
Peter Gosling – piano
Matthew Koma – acoustic guitar, bass, electric guitar, synthesizer, vocoder
Tim Lauer – keyboards, mellotron, strings
Greg Leisz – dobro, pedal steel
Chris Leonard – acoustic guitar, electric guitar, handclapping
Darrell Leonard – flugelhorn
Andy Nixon, Kris Mazzarisi, Matt Chamberlain – drums
Dave Palmer – piano
Noam Pikelny – banjo
Kaveh Rastegar – bass
Hilda Sarighani Reis, Steve Richards – cello
Leif Shires – trumpet
Spencer Thomson – electric guitar, keyboards
Oscar Utterstrom – trombone
Mike Viola – electric guitar
Chris West – baritone saxophone
Kristin Wilkinson – viola
David Angell, David Davidson, Gabe Witcher – violin
[свернуть]

EAC лог

Exact Audio Copy V1.3 from 2. September 2016

EAC extraction logfile from 14. April 2019, 11:22

Shania Twain / Now

Used drive : PIONEER DVD-RW DVR-220L Adapter: 1 ID: 0

Read mode : Secure
Utilize accurate stream : Yes
Defeat audio cache : Yes
Make use of C2 pointers : No

Read offset correction : 6
Overread into Lead-In and Lead-Out : No
Fill up missing offset samples with silence : Yes
Delete leading and trailing silent blocks : No
Null samples used in CRC calculations : Yes
Used interface : Installed external ASPI interface

Used output format : User Defined Encoder
Selected bitrate : 1024 kBit/s
Quality : High
Add ID3 tag : No
Command line compressor : C:\Program Files (x86)\Exact Audio Copy\Flac\flac.exe
Additional command line options : -6 -V -T "ARTIST=%artist%" -T "TITLE=%title%" -T "ALBUM=%albumtitle%" -T "DATE=%year%" -T "TRACKNUMBER=%tracknr%" -T "GENRE=%genre%" -T "COMMENT=%comment%" -T "BAND=%albuminterpret%" -T "ALBUMARTIST=%albuminterpret%" -T "COMPOSER=%composer%" %haslyrics%--tag-from-file=LYRICS="%lyricsfile%"%haslyrics% -T "DISCNUMBER=%cdnumber%" -T "TOTALDISCS=%totalcds%" -T "TOTALTRACKS=%numtracks%" %hascover%--picture="%coverfile%"%hascover% %source% -o %dest%


TOC of the extracted CD

Track | Start | Length | Start sector | End sector
---------------------------------------------------------
1 | 0:00.00 | 3:33.05 | 0 | 15979
2 | 3:33.05 | 3:21.29 | 15980 | 31083
3 | 6:54.34 | 3:36.65 | 31084 | 47348
4 | 10:31.24 | 3:21.21 | 47349 | 62444
5 | 13:52.45 | 4:13.26 | 62445 | 81445
6 | 18:05.71 | 3:38.11 | 81446 | 97806
7 | 21:44.07 | 3:51.54 | 97807 | 115185
8 | 25:35.61 | 3:06.28 | 115186 | 129163
9 | 28:42.14 | 3:28.62 | 129164 | 144825
10 | 32:11.01 | 2:39.32 | 144826 | 156782
11 | 34:50.33 | 3:40.12 | 156783 | 173294
12 | 38:30.45 | 3:00.03 | 173295 | 186797


Range status and errors

Selected range

Filename C:\mm\Shania Twain\2017 - Now [B0026390-02]\Shania Twain - Now.wav

Peak level 96.5 %
Extraction speed 6.5 X
Range quality 99.9 %
Test CRC 7F3C8EBF
Copy CRC 7F3C8EBF
Copy OK

No errors occurred


AccurateRip summary

Track 1 accurately ripped (confidence 57) [6A49AC47] (AR v2)
Track 2 accurately ripped (confidence 57) [04964F45] (AR v2)
Track 3 accurately ripped (confidence 57) [3F146CCF] (AR v2)
Track 4 accurately ripped (confidence 57) [6B7C4B2E] (AR v2)
Track 5 accurately ripped (confidence 57) [DA5A1C1E] (AR v2)
Track 6 accurately ripped (confidence 57) [127AB73C] (AR v2)
Track 7 accurately ripped (confidence 57) [03DCC364] (AR v2)
Track 8 accurately ripped (confidence 57) [B879AF25] (AR v2)
Track 9 accurately ripped (confidence 57) [EF8E8D52] (AR v2)
Track 10 accurately ripped (confidence 57) [F1E88DA4] (AR v2)
Track 11 accurately ripped (confidence 58) [EA3FE8D4] (AR v2)
Track 12 accurately ripped (confidence 58) [19462394] (AR v2)

All tracks accurately ripped

End of status report
[свернуть]

Файл CUE

REM GENRE "Country & Folk"
REM DATE 2017
REM DISCID 8D09BA0C
REM COMMENT "ExactAudioCopy v1.3"
PERFORMER "Shania Twain"
TITLE "Now"
REM COMPOSER ""
FILE "Shania Twain - Now.flac" WAVE
TRACK 01 AUDIO
TITLE "Swingin' With My Eyes Closed"
PERFORMER "Shania Twain"
REM COMPOSER ""
FLAGS DCP
INDEX 01 00:00:00
TRACK 02 AUDIO
TITLE "Home Now"
PERFORMER "Shania Twain"
REM COMPOSER ""
FLAGS DCP
INDEX 01 03:33:05
TRACK 03 AUDIO
TITLE "Light Of My Life"
PERFORMER "Shania Twain"
REM COMPOSER ""
FLAGS DCP
INDEX 01 06:54:34
TRACK 04 AUDIO
TITLE "Poor Me"
PERFORMER "Shania Twain"
REM COMPOSER ""
FLAGS DCP
INDEX 01 10:31:24
TRACK 05 AUDIO
TITLE "Who's Gonna Be Your Girl"
PERFORMER "Shania Twain"
REM COMPOSER ""
FLAGS DCP
INDEX 01 13:52:45
TRACK 06 AUDIO
TITLE "More Fun"
PERFORMER "Shania Twain"
REM COMPOSER ""
FLAGS DCP
INDEX 01 18:05:71
TRACK 07 AUDIO
TITLE "I'm Alright"
PERFORMER "Shania Twain"
REM COMPOSER ""
FLAGS DCP
INDEX 01 21:44:07
TRACK 08 AUDIO
TITLE "Roll Me On The River"
PERFORMER "Shania Twain"
REM COMPOSER ""
FLAGS DCP
INDEX 01 25:35:61
TRACK 09 AUDIO
TITLE "We Got Something They Don't"
PERFORMER "Shania Twain"
REM COMPOSER ""
FLAGS DCP
INDEX 01 28:42:14
TRACK 10 AUDIO
TITLE "You Can't Buy Love"
PERFORMER "Shania Twain"
REM COMPOSER ""
FLAGS DCP
INDEX 01 32:11:01
TRACK 11 AUDIO
TITLE "Life's About to Get Good"
PERFORMER "Shania Twain"
REM COMPOSER ""
FLAGS DCP
INDEX 01 34:50:33
TRACK 12 AUDIO
TITLE "Soldier"
PERFORMER "Shania Twain"
REM COMPOSER ""
FLAGS DCP
INDEX 01 38:30:45
[свернуть]

Лог проверки качества

AUDIOCHECKER v2.0 beta (build 457) - by Dester - [Ссылки могут видеть только зарегистрированные и активированные пользователи.]
[Only registered and activated users can see links.]
~~~~~~~~~~~~~~~~~~~~~~~~~~~~~~~~~~
-=== НЕ РЕДАКТИРУЙТЕ ЭТОТ ФАЙЛ! ===-

Путь: ...\2017 - Now [B0026390-02]

1 -=- Shania Twain - Now.flac -=- MPEG (95%)

216547908
[свернуть]

Спектр частот

[свернуть]

Скачать Shania Twain - Now

[Ссылки могут видеть только зарегистрированные и активированные пользователи.]
[Only registered and activated users can see links.]

password: sergych
[свернуть]

Контрольная сумма (хеш-сумма) архива

MD5: c1ff3c74e45d60ace0e3c079afc6bcc4
[свернуть]
My opinion of release: 10/10
__________________
TAIFUN.Wings of Soul

Вверх
5 пользователя(ей) сказали cпасибо:
johnsilver (21.04.2019), Lighting1981 (20.04.2019), swint68 (20.04.2019), TAIFUN (22.04.2019), Павел1 (20.04.2019)
  #2
Старый 20.04.2019, 18:04
swint68
Меломан
Досье
 
Аватар для swint68
По умолчанию Re: Shania Twain - Now

СУПЕР!

Вверх
Пользователь сказал cпасибо:
sergych (21.04.2019)
Похожие темы
Тема Автор Раздел Ответов Последнее сообщение
Сборник Shania Twain - For The Love Of Him sergych Pop Rock 0 16.03.2015 18:42
Альбом Shania Twain - Come On Over sergych Country 1 07.03.2015 18:35
Сборник Shania Twain - The Music Of Shania Twain sergych Country 0 04.02.2015 20:37
Альбом Shania Twain - Up! sergych Зарубежная Поп-Музыка 0 28.07.2014 14:46
Альбом Shania Twain - Shania Twain sergych Country 0 21.03.2014 17:03


Опции темы

Ваши права в разделе
Вы не можете создавать новые темы
Вы не можете отвечать в темах
Вы не можете прикреплять вложения
Вы не можете редактировать свои сообщения

Быстрый переход



Текущее время: 16:18. Часовой пояс GMT +3.
Powered by vBulletin® Version 3.8.10
Copyright ©2000 - 2019, vBulletin Solutions, Inc. Перевод: zCarot
© 2008 - 2019 Taifun With Song
Яндекс.Метрика