TAIFUN With Song - качественная и редкая музыка
Навигация
Folk (народная) Традиционная музыка отдельно взятого народа или культуры. Она несёт в себе частичку самобытности народа, отражает его ментальность.

А знаете ли Вы, что...
Какой диакритический знак стал использоваться рок-группами в качестве украшения?
«Диакритический знак умляут в виде двух точек над гласными Ä, Ö или Ü изменяет произношение этих звуков. Однако многие рок- и метал-группы украшают своё название умляутом просто для того, чтобы сделать его более «германским» или «скандинавским», так как фонетических изменений при этом не происходит. Самые известные примеры таких групп — Motörhead и Mötley Crüe. Некоторые коллективы идут дальше, помещая умляут над не предназначенными для этого гласными (Queensrÿche) или вообще над согласными (Spın̈al Tap).»
 
Опции темы

  #1
Старый 15.03.2019, 20:20
sergych
Координатор
Досье
 
Аватар для sergych
Релиз Mariza - Mariza


2018 - Mariza - Mariza




Исполнитель/Artist: Mariza
Альбом/Album: Mariza
Год/Year: 2018
Жанр/Genre: fado
Страна/Country: Германия
Рекорд-лейбл/Record label: Warner Music
Номер в каталоге/Catalogue #: 0190295639143
Формат/Format: Free Lossless Audio Codec (*.flac)
Качество/Quality: Lossless
Тип рипа/RIP Type: image+.cue
Продолжительность/Length: 00:53:24
Источник/Source: Собственный рип
Размер/Size: 368.8 MB

Сканы в комплекте

Треклист

01. Trigueirinha [0:02:39.17]
02. Quem Me Dera [0:04:16.69]
03. Amor Perfeito [0:03:41.34]
04. Oração [0:03:13.21]
05. Sou (Rochedo) [0:03:30.33]
06. É Mentira [0:02:57.15]
07. Semente Viva [Ft Jaques Morelenbaum] [0:03:40.61]
08. Por Tanto Te Amar [0:04:20.49]
09. Nosso Tempo [0:04:39.67]
10. Verde Limão [0:03:06.13]
11. Quebranto [0:04:14.56]
12. Oi Nha Mãe [0:03:56.04]
13. Fado Errado [Ft Maria Da Fé] [0:03:25.37]
14. Fado Refúgio [0:03:04.17]
15. Trigueirinha [Ft C.Deslandes, J.Palma, M.Veiga, M.Liz, R.Ribeiro, Tim] [0:02:37.37]
[свернуть]

Превью на YouTube

[свернуть]

EAC лог

Exact Audio Copy V1.3 from 2. September 2016

EAC extraction logfile from 9. March 2019, 18:54

Mariza / Mariza

Used drive : PIONEER DVD-RW DVR-220L Adapter: 1 ID: 0

Read mode : Secure
Utilize accurate stream : Yes
Defeat audio cache : Yes
Make use of C2 pointers : No

Read offset correction : 6
Overread into Lead-In and Lead-Out : No
Fill up missing offset samples with silence : Yes
Delete leading and trailing silent blocks : No
Null samples used in CRC calculations : Yes
Used interface : Installed external ASPI interface

Used output format : User Defined Encoder
Selected bitrate : 1024 kBit/s
Quality : High
Add ID3 tag : No
Command line compressor : C:\Program Files (x86)\Exact Audio Copy\Flac\flac.exe
Additional command line options : -6 -V -T "ARTIST=%artist%" -T "TITLE=%title%" -T "ALBUM=%albumtitle%" -T "DATE=%year%" -T "TRACKNUMBER=%tracknr%" -T "GENRE=%genre%" -T "COMMENT=%comment%" -T "BAND=%albuminterpret%" -T "ALBUMARTIST=%albuminterpret%" -T "COMPOSER=%composer%" %haslyrics%--tag-from-file=LYRICS="%lyricsfile%"%haslyrics% -T "DISCNUMBER=%cdnumber%" -T "TOTALDISCS=%totalcds%" -T "TOTALTRACKS=%numtracks%" %hascover%--picture="%coverfile%"%hascover% %source% -o %dest%


TOC of the extracted CD

Track | Start | Length | Start sector | End sector
---------------------------------------------------------
1 | 0:00.00 | 2:39.17 | 0 | 11941
2 | 2:39.17 | 4:16.69 | 11942 | 31210
3 | 6:56.11 | 3:41.34 | 31211 | 47819
4 | 10:37.45 | 3:13.21 | 47820 | 62315
5 | 13:50.66 | 3:30.33 | 62316 | 78098
6 | 17:21.24 | 2:57.15 | 78099 | 91388
7 | 20:18.39 | 3:40.61 | 91389 | 107949
8 | 23:59.25 | 4:20.49 | 107950 | 127498
9 | 28:19.74 | 4:39.67 | 127499 | 148490
10 | 32:59.66 | 3:06.13 | 148491 | 162453
11 | 36:06.04 | 4:14.56 | 162454 | 181559
12 | 40:20.60 | 3:56.04 | 181560 | 199263
13 | 44:16.64 | 3:25.37 | 199264 | 214675
14 | 47:42.26 | 3:04.17 | 214676 | 228492
15 | 50:46.43 | 2:37.37 | 228493 | 240304


Range status and errors

Selected range

Filename C:\mm\Mariza\2018 - Mariza [0190295639143]\Mariza - Mariza.wav

Peak level 100.0 %
Extraction speed 7.4 X
Range quality 100.0 %
Test CRC B2644433
Copy CRC B2644433
Copy OK

No errors occurred


AccurateRip summary

Track 1 accurately ripped (confidence 11) [ED745B50] (AR v2)
Track 2 accurately ripped (confidence 11) [867F81AF] (AR v2)
Track 3 accurately ripped (confidence 11) [4E0E1878] (AR v2)
Track 4 accurately ripped (confidence 11) [61FE9C6D] (AR v2)
Track 5 accurately ripped (confidence 11) [F0073D7F] (AR v2)
Track 6 accurately ripped (confidence 11) [E5E9D3D5] (AR v2)
Track 7 accurately ripped (confidence 11) [97CF0448] (AR v2)
Track 8 accurately ripped (confidence 11) [44F118A1] (AR v2)
Track 9 accurately ripped (confidence 11) [F95F7ED0] (AR v2)
Track 10 accurately ripped (confidence 11) [8DC52BB9] (AR v2)
Track 11 accurately ripped (confidence 11) [FE07BB85] (AR v2)
Track 12 accurately ripped (confidence 11) [30AB3ACA] (AR v2)
Track 13 accurately ripped (confidence 11) [9C2A7065] (AR v2)
Track 14 accurately ripped (confidence 11) [B08619DE] (AR v2)
Track 15 accurately ripped (confidence 11) [C4950801] (AR v2)

All tracks accurately ripped

End of status report
[свернуть]

Файл CUE

REM GENRE Fado
REM DATE 2018
REM DISCID BC0C840F
REM COMMENT "ExactAudioCopy v1.3"
PERFORMER "Mariza"
TITLE "Mariza"
REM COMPOSER ""
FILE "Mariza - Mariza.flac" WAVE
TRACK 01 AUDIO
TITLE "Trigueirinha"
PERFORMER "Mariza"
REM COMPOSER ""
INDEX 01 00:00:00
TRACK 02 AUDIO
TITLE "Quem Me Dera"
PERFORMER "Mariza"
REM COMPOSER ""
INDEX 01 02:39:17
TRACK 03 AUDIO
TITLE "Amor Perfeito"
PERFORMER "Mariza"
REM COMPOSER ""
INDEX 01 06:56:11
TRACK 04 AUDIO
TITLE "Oracao"
PERFORMER "Mariza"
REM COMPOSER ""
INDEX 01 10:37:45
TRACK 05 AUDIO
TITLE "Sou (Rochedo)"
PERFORMER "Mariza"
REM COMPOSER ""
INDEX 01 13:50:66
TRACK 06 AUDIO
TITLE "E Mentira"
PERFORMER "Mariza"
REM COMPOSER ""
INDEX 01 17:21:24
TRACK 07 AUDIO
TITLE "Semente Viva [Ft Jaques Morelenbaum]"
PERFORMER "Mariza"
REM COMPOSER ""
INDEX 01 20:18:39
TRACK 08 AUDIO
TITLE "Por Tanto Te Amar"
PERFORMER "Mariza"
REM COMPOSER ""
INDEX 01 23:59:25
TRACK 09 AUDIO
TITLE "Nosso Tempo"
PERFORMER "Mariza"
REM COMPOSER ""
INDEX 01 28:19:74
TRACK 10 AUDIO
TITLE "Verde Limao"
PERFORMER "Mariza"
REM COMPOSER ""
INDEX 01 32:59:66
TRACK 11 AUDIO
TITLE "Quebranto"
PERFORMER "Mariza"
REM COMPOSER ""
INDEX 01 36:06:04
TRACK 12 AUDIO
TITLE "Oi Nha Mae"
PERFORMER "Mariza"
REM COMPOSER ""
INDEX 01 40:20:60
TRACK 13 AUDIO
TITLE "Fado Errado [Ft Maria Da Fe]"
PERFORMER "Mariza"
REM COMPOSER ""
INDEX 01 44:16:64
TRACK 14 AUDIO
TITLE "Fado Refugio"
PERFORMER "Mariza"
REM COMPOSER ""
INDEX 01 47:42:26
TRACK 15 AUDIO
TITLE "Trigueirinha [Ft C.Deslandes, J.Palma, M.Veiga, M.Liz, R.Ribeiro, Tim]"
PERFORMER "Mariza"
REM COMPOSER ""
INDEX 01 50:46:43
[свернуть]

Лог проверки качества

AUDIOCHECKER v2.0 beta (build 457) - by Dester - [Ссылки могут видеть только зарегистрированные и активированные пользователи.]
[Only registered and activated users can see links.]
~~~~~~~~~~~~~~~~~~~~~~~~~~~~~~~~~~
-=== НЕ РЕДАКТИРУЙТЕ ЭТОТ ФАЙЛ! ===-

Путь: ...\2018 - Mariza [0190295639143]

1 -=- Mariza - Mariza.flac -=- CDDA (100%)

263662612
[свернуть]

Спектр частот

[свернуть]

Скачать Mariza - Mariza

[Ссылки могут видеть только зарегистрированные и активированные пользователи.]
[Only registered and activated users can see links.]

password: sergych
[свернуть]

Контрольная сумма (хеш-сумма) архива

MD5: b1d9f03c3a24438bb80767bad4f627a9
[свернуть]
My opinion of release: 10/10

Release info RInfo

Собственно, аналогичный диск я приобрёл ещё в прошлом году, но, в связи с некомплектностью (отсутствием буклета, о чём продавец не предупредил), его пришлось вернуть (и, хотя рип с него я, разумеется, снял постить результат в таком недокомплекте не хотелось). Наконец-то, в этом году удалось получить то, чего мне хотелось, чем я и спешу поделиться с вами.
__________________
TAIFUN.Wings of Soul


Последний раз редактировалось TAIFUN, 16.03.2019 в 15:25. Причина: сменил "пробрёл" на "приобрёл"
Вверх
3 пользователя(ей) сказали cпасибо:
johnsilver (16.03.2019), swint68 (17.03.2019), TAIFUN (16.03.2019)
  #2
Старый 17.03.2019, 17:06
swint68
Меломан
Досье
 
Аватар для swint68
По умолчанию Re: Mariza - Mariza

Супер!!

Вверх
Пользователь сказал cпасибо:
sergych (18.03.2019)
  #3
Старый 27.03.2019, 23:15
TAIFUN
Admin
Досье
 
Аватар для TAIFUN
По умолчанию Re: Mariza - Mariza

Прекрасная музыка. Впервые слышу эту исполнительницу, к своему стыду. Честно, ни на что не похожая атмосфера у этого альбома.

Дам супруге послушать, она не ровно дышит к подобным жанрам.)
__________________
I love music
FAQ по форуму
Правила форума
Жизнь человека - это не самое главное в его жизни...

Вверх
Пользователь сказал cпасибо:
sergych (28.03.2019)
  #4
Старый 28.03.2019, 09:43
TAIFUN
Admin
Досье
 
Аватар для TAIFUN
По умолчанию Re: Mariza - Mariza

UPD
Супруга в восторге от первой композиции.)) Хотелось бы в альбоме услышать больше мажорных композиций, первая на это настраивает. Но альбом в целом минорный.
__________________
I love music
FAQ по форуму
Правила форума
Жизнь человека - это не самое главное в его жизни...


Последний раз редактировалось TAIFUN, 28.03.2019 в 11:25.
Вверх
Пользователь сказал cпасибо:
sergych (28.03.2019)
  #5
Старый 28.03.2019, 16:58
sergych
Координатор
Досье
 
Аватар для sergych
По умолчанию Re: Mariza - Mariza

Цитата: Сообщение от TAIFUN Посмотреть сообщение
Впервые слышу эту исполнительницу, к своему стыду.

так я и сам только недавно открыл её для себя, - услышал где-то одну из песен, зацепило
Цитата: Сообщение от TAIFUN Посмотреть сообщение
Честно, ни на что не похожая атмосфера у этого альбома.

Я бы назвал его чуть более попсовым, нежели все предыдущие, но, тем не менее, очень приятным
__________________
TAIFUN.Wings of Soul

Вверх
Похожие темы
Тема Автор Раздел Ответов Последнее сообщение
Альбом Mariza - Transparente sergych Folk (народная) 4 31.08.2018 16:21
Альбом Mariza - Mundo sergych Folk (народная) 2 21.10.2016 18:27
Альбом Mariza - Terra sergych Folk (народная) 0 12.09.2015 11:09
Альбом Mariza - Fado Em Mim sergych Folk (народная) 1 09.09.2015 20:40
Сборник Mariza - Best Of Mariza sergych Folk (народная) 0 15.07.2014 17:49


Метки
2018 , fado , mariza

Опции темы

Ваши права в разделе
Вы не можете создавать новые темы
Вы не можете отвечать в темах
Вы не можете прикреплять вложения
Вы не можете редактировать свои сообщения

Быстрый переход



Текущее время: 08:38. Часовой пояс GMT +3.
Powered by vBulletin® Version 3.8.10
Copyright ©2000 - 2019, vBulletin Solutions, Inc. Перевод: zCarot
© 2008 - 2019 Taifun With Song
Яндекс.Метрика