TAIFUN With Song - качественная и редкая музыка
Навигация
Jazz и Blues Гибкая ритмика, импровизационное начало, гармонии и мелодии - все это Jazz. Blues - жизнеутверждающая музыка, рожденная из душевной боли

А знаете ли Вы, что...
Зачем Джимми Хендрикс на некоторых концертах целовал в щёку своего бас-гитариста?
«В песне Джимми Хендрикса «Purple Haze» есть строчка: «Excuse me while I kiss the sky» («Прости меня, когда я целую небеса»). Очень часто слушатели понимали её совсем по-другому: «Excuse me while I kiss this guy» («Прости меня, когда я целую этого парня»). Сам Хендрикс знал об этой ослышке и иногда после исполнения этой строчки целовал в щёку своего бас-гитариста.»
 
Опции темы

  #1
Старый 10.03.2019, 14:46
sergych
Координатор
Досье
 
Аватар для sergych
Релиз Zaz - Paris


2014 - Zaz - Paris




Исполнитель/Artist: Zaz
Альбом/Album: Paris
Год/Year: 2014
Жанр/Genre: Pop, jazz, blues, chanson
Страна/Country: Германия
Рекорд-лейбл/Record label: Play On / Warner Music
Номер в каталоге/Catalogue #: 0825646223374
Формат/Format: Free Lossless Audio Codec (*.flac)
Качество/Quality: Lossless
Тип рипа/RIP Type: image+.cue
Продолжительность/Length: 00:43:26
Источник/Source: Собственный рип
Размер/Size: 327.7 MB

Сканы в комплекте

Треклист

01. Paris Sera Toujours Paris [0:02:58.68]
02. Sous Le Ciel De Paris [0:03:17.74]
03. La Parisienne [0:03:01.33]
04. Dans Mon Paris (Swing Manouche Version) [0:03:18.64]
05. Champs Elysees [0:02:57.37]
06. A Paris [0:03:01.04]
07. I love Paris - J'aime Paris (Feat. Nikki Yanofsky) [0:04:05.02]
08. La Romance De Paris (Feat. Thomas Dutronc) [0:03:31.66]
09. Paris Canaille [0:03:55.29]
10. La Complainte De La Butte [0:03:19.45]
11. J'aime Paris Au Mois De Mai (Feat. Charles Aznavour) [0:04:06.65]
12. Paris, L'apres-midi [0:02:25.08]
13. J'ai Deux Amours [0:03:26.64]
[свернуть]

Превью на YouTube

[свернуть]

EAC лог

Exact Audio Copy V1.3 from 2. September 2016

EAC extraction logfile from 9. March 2019, 11:25

Zaz / Paris

Used drive : PIONEER DVD-RW DVR-220L Adapter: 1 ID: 0

Read mode : Secure
Utilize accurate stream : Yes
Defeat audio cache : Yes
Make use of C2 pointers : No

Read offset correction : 6
Overread into Lead-In and Lead-Out : No
Fill up missing offset samples with silence : Yes
Delete leading and trailing silent blocks : No
Null samples used in CRC calculations : Yes
Used interface : Installed external ASPI interface

Used output format : User Defined Encoder
Selected bitrate : 1024 kBit/s
Quality : High
Add ID3 tag : No
Command line compressor : C:\Program Files (x86)\Exact Audio Copy\Flac\flac.exe
Additional command line options : -6 -V -T "ARTIST=%artist%" -T "TITLE=%title%" -T "ALBUM=%albumtitle%" -T "DATE=%year%" -T "TRACKNUMBER=%tracknr%" -T "GENRE=%genre%" -T "COMMENT=%comment%" -T "BAND=%albuminterpret%" -T "ALBUMARTIST=%albuminterpret%" -T "COMPOSER=%composer%" %haslyrics%--tag-from-file=LYRICS="%lyricsfile%"%haslyrics% -T "DISCNUMBER=%cdnumber%" -T "TOTALDISCS=%totalcds%" -T "TOTALTRACKS=%numtracks%" %hascover%--picture="%coverfile%"%hascover% %source% -o %dest%


TOC of the extracted CD

Track | Start | Length | Start sector | End sector
---------------------------------------------------------
1 | 0:00.00 | 2:58.68 | 0 | 13417
2 | 2:58.68 | 3:17.74 | 13418 | 28266
3 | 6:16.67 | 3:01.33 | 28267 | 41874
4 | 9:18.25 | 3:18.64 | 41875 | 56788
5 | 12:37.14 | 2:57.37 | 56789 | 70100
6 | 15:34.51 | 3:01.04 | 70101 | 83679
7 | 18:35.55 | 4:05.02 | 83680 | 102056
8 | 22:40.57 | 3:31.66 | 102057 | 117947
9 | 26:12.48 | 3:55.29 | 117948 | 135601
10 | 30:08.02 | 3:19.45 | 135602 | 150571
11 | 33:27.47 | 4:06.65 | 150572 | 169086
12 | 37:34.37 | 2:25.08 | 169087 | 179969
13 | 39:59.45 | 3:26.64 | 179970 | 195483


Range status and errors

Selected range

Filename C:\mm\ZAZ\2014 - Paris [0825646223374]\Zaz - Paris.wav

Peak level 99.8 %
Extraction speed 6.6 X
Range quality 100.0 %
Copy CRC 0683F0B0
Copy OK

No errors occurred


AccurateRip summary

Track 1 accurately ripped (confidence 200) [061961E2] (AR v2)
Track 2 accurately ripped (confidence 200) [B67B7AFC] (AR v2)
Track 3 accurately ripped (confidence 200) [1EBEDA42] (AR v2)
Track 4 accurately ripped (confidence 200) [23AEE529] (AR v2)
Track 5 accurately ripped (confidence 200) [9DD20E3F] (AR v2)
Track 6 accurately ripped (confidence 200) [252A6639] (AR v2)
Track 7 accurately ripped (confidence 200) [B2D917D4] (AR v2)
Track 8 accurately ripped (confidence 200) [B2FDDB37] (AR v2)
Track 9 accurately ripped (confidence 200) [E03C937E] (AR v2)
Track 10 accurately ripped (confidence 200) [08F01D3C] (AR v2)
Track 11 accurately ripped (confidence 200) [180EA675] (AR v2)
Track 12 accurately ripped (confidence 200) [04F272FA] (AR v2)
Track 13 accurately ripped (confidence 200) [27B2DBBC] (AR v2)

All tracks accurately ripped

End of status report
[свернуть]

Файл CUE

REM GENRE Chanson
REM DATE 2014
REM DISCID A10A2E0D
REM COMMENT "ExactAudioCopy v1.3"
PERFORMER "Zaz"
TITLE "Paris"
REM COMPOSER ""
FILE "Zaz - Paris.flac" WAVE
TRACK 01 AUDIO
TITLE "Paris Sera Toujours Paris"
PERFORMER "Zaz"
REM COMPOSER ""
INDEX 01 00:00:00
TRACK 02 AUDIO
TITLE "Sous Le Ciel De Paris"
PERFORMER "Zaz"
REM COMPOSER ""
INDEX 01 02:58:68
TRACK 03 AUDIO
TITLE "La Parisienne"
PERFORMER "Zaz"
REM COMPOSER ""
INDEX 01 06:16:67
TRACK 04 AUDIO
TITLE "Dans Mon Paris (Swing Manouche Version)"
PERFORMER "Zaz"
REM COMPOSER ""
INDEX 01 09:18:25
TRACK 05 AUDIO
TITLE "Champs Elysees"
PERFORMER "Zaz"
REM COMPOSER ""
INDEX 01 12:37:14
TRACK 06 AUDIO
TITLE "A Paris"
PERFORMER "Zaz"
REM COMPOSER ""
INDEX 00 15:33:04
INDEX 01 15:34:51
TRACK 07 AUDIO
TITLE "I love Paris - J'aime Paris (Feat. Nikki Yanofsky)"
PERFORMER "Zaz"
REM COMPOSER ""
FLAGS DCP
INDEX 01 18:35:55
TRACK 08 AUDIO
TITLE "La Romance De Paris (Feat. Thomas Dutronc)"
PERFORMER "Zaz"
REM COMPOSER ""
INDEX 00 22:38:30
INDEX 01 22:40:57
TRACK 09 AUDIO
TITLE "Paris Canaille"
PERFORMER "Zaz"
REM COMPOSER ""
INDEX 01 26:12:48
TRACK 10 AUDIO
TITLE "La Complainte De La Butte"
PERFORMER "Zaz"
REM COMPOSER ""
INDEX 00 30:06:68
INDEX 01 30:08:02
TRACK 11 AUDIO
TITLE "J'aime Paris Au Mois De Mai (Feat. Charles Aznavour)"
PERFORMER "Zaz"
REM COMPOSER ""
INDEX 01 33:27:47
TRACK 12 AUDIO
TITLE "Paris, L'apres-midi"
PERFORMER "Zaz"
REM COMPOSER ""
INDEX 01 37:34:37
TRACK 13 AUDIO
TITLE "J'ai Deux Amours"
PERFORMER "Zaz"
REM COMPOSER ""
INDEX 00 39:58:45
INDEX 01 39:59:45
[свернуть]

Лог проверки качества

AUDIOCHECKER v2.0 beta (build 457) - by Dester - [Ссылки могут видеть только зарегистрированные и активированные пользователи.]
[Only registered and activated users can see links.]
~~~~~~~~~~~~~~~~~~~~~~~~~~~~~~~~~~
-=== НЕ РЕДАКТИРУЙТЕ ЭТОТ ФАЙЛ! ===-

Путь: ...\2014 - Paris [0825646223374]

1 -=- Zaz - Paris.flac -=- CDDA (100%)

125976692
[свернуть]

Спектр частот

[свернуть]

Скачать Zaz - Paris

[Ссылки могут видеть только зарегистрированные и активированные пользователи.]
[Only registered and activated users can see links.]

password: sergych
[свернуть]

Контрольная сумма (хеш-сумма) архива

MD5: b1955913c93ed34989f1f97340c473c1
[свернуть]
My opinion of release: 10/10
__________________
TAIFUN.Wings of Soul

Вверх
2 пользователя(ей) сказали cпасибо:
swint68 (10.03.2019), TAIFUN (11.03.2019)
Похожие темы
Тема Автор Раздел Ответов Последнее сообщение
VA Paris, Je T’aime PUPOKIN Lo-fi 1 19.09.2016 15:35
BD Shakira: Live from Paris (Shakira: En Vivo Desde Paris) (2011) PUPOKIN Альбомы и концерты 0 09.12.2011 09:57
Релиз Paris Hilton - Paris PUPOKIN Зарубежная Поп-Музыка 0 24.07.2009 10:15
Саундтрек Paris PUPOKIN Саундтреки 0 12.04.2009 15:42
Dimitri From Paris DarkDan House 0 24.04.2008 13:07


Метки
2014 , blues , chanson , jazz , paris , pop , zaz

Опции темы

Ваши права в разделе
Вы не можете создавать новые темы
Вы не можете отвечать в темах
Вы не можете прикреплять вложения
Вы не можете редактировать свои сообщения

Быстрый переход



Текущее время: 09:21. Часовой пояс GMT +3.
Powered by vBulletin® Version 3.8.10
Copyright ©2000 - 2019, vBulletin Solutions, Inc. Перевод: zCarot
© 2008 - 2019 Taifun With Song
Яндекс.Метрика