TAIFUN With Song - качественная и редкая музыка
Навигация
Вернуться   TAIFUN With Song - качественная и редкая музыка > Music (обменник) > Metal > Symphonic Metal
Расширенный поиск
Symphonic Metal Стиль, соединяющий метал и классическую оркестровую музыку. При создании музыки в этом стиле часто используется женский вокал, хор, симфонические музыкальные инструменты или их имитация с помощью синтезатора.

А знаете ли Вы, что...
Какой музыкант однажды спел о том, что забыл слова этой песни?
«Однажды на концерте во Франции солист исландской группы Sigur Rós Йонси забыл текст песни. Не остановившись, он сымпровизировал под ту же музыку: «Чёрт, я забыл слова. Но это ничего. Потому что я во Франции, где никто не поймёт».»
 
Опции темы

  #1
Старый 19.01.2020, 08:53
swint68
Релизёр
Досье
 
Аватар для swint68
По умолчанию Ancient Bards - Origine: The Black Crystal Sword Saga Pt.2


2019 - Ancient Bards - Origine: The Black Crystal Sword Saga Pt.2




Исполнитель/Artist: Ancient Bards
Альбом/Album: Origine: The Black Crystal Sword Saga Pt.2
Год/Year: 2019
Жанр/Genre: Symphonic Power Metal
Страна/Country: Япония
Рекорд-лейбл/Record label: Avalon; Marquee Inc.
Номер в каталоге/Catalogue #: MICP-11456
Формат/Format: Free Lossless Audio Codec (*.flac)
Качество/Quality: Lossless
Тип рипа/RIP Type: image+.cue
Продолжительность/Length: 01:06:36
Источник/Source: Ilijan
Размер/Size: 569 MB

Сканы в комплекте

Треклист

01. Origine
02. Impious Dystopia
03. Fantasy's Wings
04. Aureum Legacy
05. Light
06. Oscurita
07. Titanism
08. The Hollow
09. Home Of The Rejects
10. The Great Divide
- I. Farewell Father
- II. Teardrop
- III. Il Grande E Forte Impero
11. Eredita Aurea (bonus' Orchestral vers.)
12. Home Of The Rejects (bonus'Karaoke vers.)
[свернуть]

Превью на YouTube

[свернуть]

EAC лог

Exact Audio Copy V1.3 from 2. September 2016

EAC extraction logfile from 30. January 2019, 23:37

Ancient Bards / Origine: The Black Crystal Sword Saga Part 2 (Japan)

Used drive : ATAPI iHAS124 F Adapter: 2 ID: 0

Read mode : Secure
Utilize accurate stream : Yes
Defeat audio cache : Yes
Make use of C2 pointers : No

Read offset correction : 6
Overread into Lead-In and Lead-Out : No
Fill up missing offset samples with silence : Yes
Delete leading and trailing silent blocks : No
Null samples used in CRC calculations : Yes
Used interface : Installed external ASPI interface

Used output format : User Defined Encoder
Selected bitrate : 1024 kBit/s
Quality : High
Add ID3 tag : No
Command line compressor : C:\Program Files\FLAC\flac.exe
Additional command line options : -V -8 -T "Date=%year%" -T "Genre=%genre%" -T"COMMENT=Ripped by Ilijan [MeTaLMaDNeSS.TeaM]" -8 -V %source%


TOC of the extracted CD

Track | Start | Length | Start sector | End sector
---------------------------------------------------------
1 | 0:00.00 | 2:15.10 | 0 | 10134
2 | 2:15.10 | 5:40.66 | 10135 | 35700
3 | 7:56.01 | 4:51.02 | 35701 | 57527
4 | 12:47.03 | 5:42.27 | 57528 | 83204
5 | 18:29.30 | 4:43.03 | 83205 | 104432
6 | 23:12.33 | 6:19.57 | 104433 | 132914
7 | 29:32.15 | 5:09.00 | 132915 | 156089
8 | 34:41.15 | 3:30.72 | 156090 | 171911
9 | 38:12.12 | 3:57.19 | 171912 | 189705
10 | 42:09.31 | 14:47.50 | 189706 | 256280
11 | 56:57.06 | 5:42.12 | 256281 | 281942
12 | 62:39.18 | 3:57.22 | 281943 | 299739


Range status and errors

Selected range

Filename D:\Vknish+g.y.m.=3.14дарасы (Upload On Rutracker, DIE!!!)\Ancient Bards - Origine- The Black Crystal Sword Saga Part 2 (Japan).wav

Peak level 98.8 %
Extraction speed 9.3 X
Range quality 100.0 %
Test CRC 8C69F72E
Copy CRC 8C69F72E
Copy OK

No errors occurred


AccurateRip summary

Track 1 not present in database
Track 2 not present in database
Track 3 not present in database
Track 4 not present in database
Track 5 not present in database
Track 6 not present in database
Track 7 not present in database
Track 8 not present in database
Track 9 not present in database
Track 10 not present in database
Track 11 not present in database
Track 12 not present in database

None of the tracks are present in the AccurateRip database

End of status report

---- CUETools DB Plugin V2.1.6

[CTDB TOCID: 0nFemJbyUf20ZUFig9q7jANy01Y-] found
Submit result: 0nFemJbyUf20ZUFig9q7jANy01Y- has been confirmed
Track | CTDB Status
1 | (1/1) Accurately ripped
2 | (1/1) Accurately ripped
3 | (1/1) Accurately ripped
4 | (1/1) Accurately ripped
5 | (1/1) Accurately ripped
6 | (1/1) Accurately ripped
7 | (1/1) Accurately ripped
8 | (1/1) Accurately ripped
9 | (1/1) Accurately ripped
10 | (1/1) Accurately ripped
11 | (1/1) Accurately ripped
12 | (1/1) Accurately ripped


==== Log checksum 914ED86CC884441BE18284328EFF5796200FFFC51494AD7E950803E4E477080E ====
[свернуть]

Файл CUE

REM GENRE "Symphonic Power Metal"
REM DATE 2019
REM DISCID A90F9C0C
REM COMMENT "ExactAudioCopy v1.3"
PERFORMER "Ancient Bards"
TITLE "Origine: The Black Crystal Sword Saga Part 2 (Japan)"
FILE "Ancient Bards - Origine- The Black Crystal Sword Saga Part 2 (Japan).flac" WAVE
TRACK 01 AUDIO
TITLE "Origine"
PERFORMER "Ancient Bards"
INDEX 01 00:00:00
TRACK 02 AUDIO
TITLE "Impious Dystopia"
PERFORMER "Ancient Bards"
INDEX 01 02:15:10
TRACK 03 AUDIO
TITLE "Fantasy's Wings"
PERFORMER "Ancient Bards"
INDEX 01 07:56:01
TRACK 04 AUDIO
TITLE "Aureum Legacy"
PERFORMER "Ancient Bards"
INDEX 01 12:47:03
TRACK 05 AUDIO
TITLE "Light"
PERFORMER "Ancient Bards"
INDEX 01 18:29:30
TRACK 06 AUDIO
TITLE "Oscurita"
PERFORMER "Ancient Bards"
INDEX 01 23:12:33
TRACK 07 AUDIO
TITLE "Titanism"
PERFORMER "Ancient Bards"
INDEX 01 29:32:15
TRACK 08 AUDIO
TITLE "The Hollow"
PERFORMER "Ancient Bards"
INDEX 01 34:41:15
TRACK 09 AUDIO
TITLE "Home Of The Rejects"
PERFORMER "Ancient Bards"
INDEX 01 38:12:12
TRACK 10 AUDIO
TITLE "The Great Divide"
PERFORMER "Ancient Bards"
INDEX 01 42:09:31
TRACK 11 AUDIO
TITLE "Eredita Aurea (Orchestral Version) (Bonus Track)"
PERFORMER "Ancient Bards"
INDEX 01 56:57:06
TRACK 12 AUDIO
TITLE "Home Of The Rejects (Karaoke Version) (Bonus Track)"
PERFORMER "Ancient Bards"
INDEX 01 62:39:18
[свернуть]

Лог проверки качества

-----------------------

DON'T MODIFY THIS FILE

-----------------------

PERFORMER: auCDtect Task Manager, ver. 1.6.0 RC1 build 1.6.0.1
Copyright (c) 2008-2010 y-soft. All rights reserved
[Ссылки могут видеть только зарегистрированные и активированные пользователи.]
[Only registered and activated users can see links.]

ANALYZER: auCDtect: CD records authenticity detector, version 0.8.2
Copyright (c) 2004 Oleg Berngardt. All rights reserved.
Copyright (c) 2004 Alexander Djourik. All rights reserved.


FILE: Ancient Bards - Origine- The Black Crystal Sword Saga Part 2 (Japan).flac
Size: 498558861 Hash: 67D6342CB21A26AC241E799683949289 Accuracy: -m0
Conclusion: CDDA 100%
Signature: 7629171DD5CEE578C3ABAF65356BD13D45BD702D
[свернуть]

Скачать Ancient Bards - Origine: The Black Crystal Sword Saga Pt.2

[Ссылки могут видеть только зарегистрированные и активированные пользователи.]
[Only registered and activated users can see links.]
[свернуть]

Вверх
2 пользователя(ей) сказали cпасибо:
sergych (19.01.2020), TAIFUN (19.01.2020)
 
Похожие темы
Тема Автор Раздел Ответов Последнее сообщение
Релиз ValSans - Sword PUPOKIN Heavy Metal 0 01.06.2011 09:30
Релиз Lazer Sword - Lazer Sword PUPOKIN Electro 0 04.09.2010 10:00
Релиз Siddharta - Saga PUPOKIN Hard Rock 0 11.12.2009 09:24
Релиз Vagrant Freaker - Black Crystal PUPOKIN Dream House 0 10.02.2009 09:34
Saga - Trust LUСIAN Progressive Rock 0 29.04.2008 21:20


Метки
2019 , ancient bards , origine: the black crystal sword saga pt.2 , symphonic power metal

Опции темы

Ваши права в разделе
Вы не можете создавать новые темы
Вы не можете отвечать в темах
Вы не можете прикреплять вложения
Вы не можете редактировать свои сообщения

Быстрый переход


Текущее время: 22:18. Часовой пояс GMT +3.

© 2008 - 2020 Taifun With Song
Powered by vBulletin® Version 3.8.10
Copyright ©2000 - 2020, vBulletin Solutions, Inc. Перевод: zCarot
При поддержке NIC.UA
Яндекс.Метрика