TAIFUN With Song - качественная и редкая музыка
Навигация
Progressive Rock Единственной универсальной характеристикой прогрессивного рока является усложнение музыкальной формы. Это проявляется в удлиннении и усложнении музыкальных пьес, тяготении к циклическим формам академической музыки; расширении репертуара используемых тембров, усложнении метра и ритма, использовании нетрадиционных для рока мелодических и гармонических решений; поэзии, уходящей от тем развлекательной музыки и тяготеющей к философским «вечным темам», фантастической и фентезийной тематике; переплетении с классической и современной академической музыкой, джазом.

А знаете ли Вы, что...
Что поётся в песенке «уно-уно-уно, ун моменто»?
«Песенка «уно-уно-уно, ун моменто» из фильма «Формула любви» кажется написанной на итальянском языке. В действительности её текст представляет собой несвязный набор из итальянских слов, а придуман он был композитором фильма Геннадием Гладковым.»
 
Опции темы

  #1
Старый 20.10.2013, 09:03
sergych
Координатор
Досье
 
Аватар для sergych
FLAC Electric Light Orchestra - Out Of The Blue


1977(1987) - Electric Light Orchestra - Out Of The Blue




Исполнитель/Artist: Electric Light Orchestra
Альбом/Album: Out Of The Blue
Год/Year: 1977
Ремастеринг/Remaster: 1987
Жанр/Genre: Symphonic rock, art rock, progressive rock
Страна/Country: Австрия
Рекорд-лейбл/Record label: Epic
Номер в каталоге/Catalogue #: 450885 2 / 5099745088522
Формат/Format: Free Lossless Audio Codec (*.flac)
Качество/Quality: Lossless
Тип рипа/RIP Type: image+.cue



Продолжительность/Length: 01:10:22
Источник/Source: Из интернета
Размер/Size: 564.8 MB

Сканы в комплекте

Треклист

01 - Turn To Stone
02 - It's Over
03 - Sweet Talkin' Woman
04 - Across The Border
05 - Night In The City
06 - Starlight
07 - Jungle
08 - Believe Me Now
09 - Steppin' Out
10 - Standin' In The Rain
11 - Big Wheels
12 - Summer And Lightning
13 - Mr. Blue Sky
14 - Sweet Is The Night
15 - The Whale
16 - Birmingham Blues
17 - Wild West Hero
[свернуть]

youtube.com

[свернуть]

Исполнители/Performers

Jeff Lynne – lead vocals, backing vocals, guitar, keyboards, percussion
Bev Bevan – drums, percussion, backing vocals, fire extinguisher on "Mr. Blue Sky"
Richard Tandy – keyboards, guitar
Kelly Groucutt – co-lead vocals on "Sweet Is the Night", backing vocals, bass guitar, percussion
Mik Kaminski – violin
Melvyn Gale – cello, piano
Hugh McDowell – cello
Louis Clark – Orchestra conductor
[свернуть]

EAC лог

Exact Audio Copy V0.99 prebeta 5 from 4. May 2009

EAC extraction logfile from 28. December 2009, 14:47

Electric Light Orchestra / Out Of The Blue

Used drive : HL-DT-STDVDRAM_GSA-T20N Adapter: 1 ID: 0

Read mode : Secure
Utilize accurate stream : Yes
Defeat audio cache : Yes
Make use of C2 pointers : No

Read offset correction : 667
Overread into Lead-In and Lead-Out : No
Fill up missing offset samples with silence : Yes
Delete leading and trailing silent blocks : No
Null samples used in CRC calculations : Yes
Used interface : Native Win32 interface for Win NT & 2000

Used output format : User Defined Encoder
Selected bitrate : 768 kBit/s
Quality : High
Add ID3 tag : No
Command line compressor : C:\Program Files\Exact Audio Copy\Flac\flac.exe
Additional command line options : -6 -V -T "ARTIST=%a" -T "TITLE=%t" -T "ALBUM=%g" -T "DATE=%y" -T "TRACKNUMBER=%n" -T "GENRE=%m" -T "COMMENT=%e" %s -o %d


TOC of the extracted CD

Track | Start | Length | Start sector | End sector
---------------------------------------------------------
1 | 0:00.00 | 3:47.42 | 0 | 17066
2 | 3:47.42 | 4:08.15 | 17067 | 35681
3 | 7:55.57 | 3:50.25 | 35682 | 52956
4 | 11:46.07 | 3:53.08 | 52957 | 70439
5 | 15:39.15 | 4:02.12 | 70440 | 88601
6 | 19:41.27 | 4:27.60 | 88602 | 108686
7 | 24:09.12 | 3:52.10 | 108687 | 126096
8 | 28:01.22 | 1:21.05 | 126097 | 132176
9 | 29:22.27 | 4:39.60 | 132177 | 153161
10 | 34:02.12 | 4:19.60 | 153162 | 172646
11 | 38:21.72 | 5:08.48 | 172647 | 195794
12 | 43:30.45 | 4:10.70 | 195795 | 214614
13 | 47:41.40 | 5:06.15 | 214615 | 237579
14 | 52:47.55 | 3:28.15 | 237580 | 253194
15 | 56:15.70 | 5:02.22 | 253195 | 275866
16 | 61:18.17 | 4:23.13 | 275867 | 295604
17 | 65:41.30 | 4:41.45 | 295605 | 316724


Range status and errors

Selected range

Filename D:\Music\Electric Light Orchestra - Out Of The Blue.wav

Peak level 99.4 %
Range quality 100.0 %
Copy CRC 8EB15E20
Copy OK

No errors occurred


AccurateRip summary

Track 1 accurately ripped (confidence 85) [251BEF4F]
Track 2 accurately ripped (confidence 85) [7A94C431]
Track 3 accurately ripped (confidence 85) [C7D8BE21]
Track 4 accurately ripped (confidence 85) [852FBC07]
Track 5 accurately ripped (confidence 84) [C6932119]
Track 6 accurately ripped (confidence 84) [517F9649]
Track 7 accurately ripped (confidence 84) [7FB1CEFC]
Track 8 accurately ripped (confidence 82) [3BCCDE03]
Track 9 accurately ripped (confidence 83) [7079A4DC]
Track 10 accurately ripped (confidence 84) [D4125498]
Track 11 accurately ripped (confidence 83) [18971508]
Track 12 accurately ripped (confidence 84) [CFC3D975]
Track 13 accurately ripped (confidence 85) [58D28982]
Track 14 accurately ripped (confidence 85) [0C18ABEF]
Track 15 accurately ripped (confidence 83) [F781FA1D]
Track 16 accurately ripped (confidence 84) [937E703B]
Track 17 accurately ripped (confidence 83) [EC04AF8B]

All tracks accurately ripped

End of status report
[свернуть]

Файл CUE

REM GENRE Rock
REM DATE 1977
REM DISCID F5107F11
REM COMMENT "ExactAudioCopy v0.99pb5"
PERFORMER "Electric Light Orchestra"
TITLE "Out Of The Blue"
FILE "Electric Light Orchestra - Out Of The Blue.flac" WAVE
TRACK 01 AUDIO
TITLE "Turn To Stone"
PERFORMER "Electric Light Orchestra"
INDEX 01 00:00:00
TRACK 02 AUDIO
TITLE "It's Over"
PERFORMER "Electric Light Orchestra"
INDEX 00 03:46:67
INDEX 01 03:47:42
TRACK 03 AUDIO
TITLE "Sweet Talkin' Woman"
PERFORMER "Electric Light Orchestra"
INDEX 01 07:55:57
TRACK 04 AUDIO
TITLE "Across The Border"
PERFORMER "Electric Light Orchestra"
INDEX 00 11:44:07
INDEX 01 11:46:07
TRACK 05 AUDIO
TITLE "Night In The City"
PERFORMER "Electric Light Orchestra"
INDEX 01 15:39:15
TRACK 06 AUDIO
TITLE "Starlight"
PERFORMER "Electric Light Orchestra"
INDEX 01 19:41:27
TRACK 07 AUDIO
TITLE "Jungle"
PERFORMER "Electric Light Orchestra"
INDEX 00 24:07:67
INDEX 01 24:09:12
TRACK 08 AUDIO
TITLE "Believe Me Now"
PERFORMER "Electric Light Orchestra"
INDEX 00 28:00:45
INDEX 01 28:01:22
TRACK 09 AUDIO
TITLE "Steppin' Out"
PERFORMER "Electric Light Orchestra"
INDEX 01 29:22:27
TRACK 10 AUDIO
TITLE "Standin' In The Rain"
PERFORMER "Electric Light Orchestra"
INDEX 00 34:00:25
INDEX 01 34:02:12
TRACK 11 AUDIO
TITLE "Big Wheels"
PERFORMER "Electric Light Orchestra"
INDEX 01 38:21:72
TRACK 12 AUDIO
TITLE "Summer And Lightning"
PERFORMER "Electric Light Orchestra"
INDEX 01 43:30:45
TRACK 13 AUDIO
TITLE "Mr. Blue Sky"
PERFORMER "Electric Light Orchestra"
INDEX 01 47:41:40
TRACK 14 AUDIO
TITLE "Sweet Is The Night"
PERFORMER "Electric Light Orchestra"
INDEX 00 52:46:57
INDEX 01 52:47:55
TRACK 15 AUDIO
TITLE "The Whale"
PERFORMER "Electric Light Orchestra"
INDEX 00 56:14:60
INDEX 01 56:15:70
TRACK 16 AUDIO
TITLE "Birmingham Blues"
PERFORMER "Electric Light Orchestra"
INDEX 00 61:16:22
INDEX 01 61:18:17
TRACK 17 AUDIO
TITLE "Wild West Hero"
PERFORMER "Electric Light Orchestra"
INDEX 00 65:40:55
INDEX 01 65:41:30
[свернуть]

Лог проверки качества

AUDIOCHECKER v2.0 beta (build 457) - by Dester - [Ссылки могут видеть только зарегистрированные и активированные пользователи.]
[Only registered and activated users can see links.]
~~~~~~~~~~~~~~~~~~~~~~~~~~~~~~~~~~
-=== НЕ РЕДАКТИРУЙТЕ ЭТОТ ФАЙЛ! ===-

Путь: ...\1977 - Out Of The Blue (450885 2)

1 -=- Electric Light Orchestra - Out Of The Blue.flac -=- CDDA (100%)

53692244
[свернуть]

Скачать Electric Light Orchestra - Out Of The Blue

[Ссылки могут видеть только зарегистрированные и активированные пользователи.]
[Only registered and activated users can see links.]

password: sergych
[свернуть]
My opinion of release: 10/10
__________________
TAIFUN.Wings of Soul

Вверх
2 пользователя(ей) сказали cпасибо:
TAIFUN (29.06.2022), VladislavUdalov (26.09.2017)
 
  #2
Старый 09.04.2016, 16:07
sergych
Координатор
Досье
 
Аватар для sergych
FLAC Re: Electric Light Orchestra - Out Of The Blue


1977(2007) - Electric Light Orchestra - Out Of The Blue {30th Anniversary Edition}




Исполнитель/Artist: Electric Light Orchestra
Альбом/Album: Out Of The Blue {30th Anniversary Edition}
Год/Year: 1977
Ремастеринг/Remaster: 2007
Жанр/Genre: Symphonic rock, art rock, progressive rock
Страна/Country: Соединённые Штаты
Рекорд-лейбл/Record label: Epic / Sony Music
Номер в каталоге/Catalogue #: ZGK 35530
Формат/Format: Free Lossless Audio Codec (*.flac)
Качество/Quality: Lossless
Тип рипа/RIP Type: image+.cue



Продолжительность/Length: 01:16:28
Источник/Source: Собственный рип
Размер/Size: 545.7 MB

Сканы в комплекте

Треклист

01. Turn to Stone [0:03:49.07]
02. It's Over [0:04:08.65]
03. Sweet Talkin' Woman [0:03:49.65]
04. Across the Border [0:03:53.60]
05. Night in the City [0:04:03.70]
06. Starlight [0:04:31.60]
07. Jungle [0:03:53.22]
08. Believe Me Now [0:01:21.20]
09. Steppin' Out [0:04:40.35]
10. Standin' in the Rain [0:03:59.65]
11. Big Wheels [0:05:32.16]
12. Summer and Lightning [0:04:14.72]
13. Mr. Blue Sky [0:05:03.28]
14. Sweet Is the Night [0:03:27.71]
15. The Whale [0:05:07.26]
16. Birmingham Blues [0:04:23.49]
17. Wild West Hero [0:04:45.51]
18. Wild West Hero (Alternate Bridge, Home Demo) [0:00:26.14]
19. The Quick and the Daft [0:01:49.71]
20. Latitude 88 North [0:03:24.03]
[свернуть]

youtube.com

[свернуть]

Исполнители/Performers

Jeff Lynne – lead vocals, backing vocals, guitar, keyboards, percussion
Bev Bevan – drums, percussion, backing vocals, fire extinguisher on "Mr. Blue Sky"
Richard Tandy – keyboards, guitar
Kelly Groucutt – co-lead vocals on "Sweet Is the Night", backing vocals, bass guitar, percussion
Mik Kaminski – violin
Melvyn Gale – cello, piano
Hugh McDowell – cello
[свернуть]

EAC лог

Exact Audio Copy V1.1 from 23. June 2015

EAC extraction logfile from 3. April 2016, 4:09

Electric Light Orchestra / Out of the Blue

Used drive : ATAPI iHAS124 D Adapter: 0 ID: 2

Read mode : Secure
Utilize accurate stream : Yes
Defeat audio cache : Yes
Make use of C2 pointers : No

Read offset correction : 6
Overread into Lead-In and Lead-Out : No
Fill up missing offset samples with silence : Yes
Delete leading and trailing silent blocks : No
Null samples used in CRC calculations : Yes
Used interface : Installed external ASPI interface

Used output format : User Defined Encoder
Selected bitrate : 1024 kBit/s
Quality : High
Add ID3 tag : Yes
Command line compressor : C:\Program Files (x86)\Exact Audio Copy\Flac\flac.exe
Additional command line options : -6 -V -T "ARTIST=%artist%" -T "TITLE=%title%" -T "ALBUM=%albumtitle%" -T "DATE=%year%" -T "TRACKNUMBER=%tracknr%" -T "GENRE=%genre%" -T "COMMENT=%comment%" -T "BAND=%albuminterpret%" -T "COMPOSER=%composer%" %haslyrics%--tag-from-file=LYRICS="%lyricsfile%"%haslyrics% -T "DISCNUMBER=%cdnumber%" -T "TOTALDISCS=%totalcds%" -T "TOTALTRACKS=%numtracks%" %hascover%--picture="%coverfile%"%hascover% %source% -o %dest%


TOC of the extracted CD

Track | Start | Length | Start sector | End sector
---------------------------------------------------------
1 | 0:00.00 | 3:49.07 | 0 | 17181
2 | 3:49.07 | 4:08.65 | 17182 | 35846
3 | 7:57.72 | 3:49.65 | 35847 | 53086
4 | 11:47.62 | 3:53.60 | 53087 | 70621
5 | 15:41.47 | 4:03.70 | 70622 | 88916
6 | 19:45.42 | 4:31.60 | 88917 | 109301
7 | 24:17.27 | 3:53.22 | 109302 | 126798
8 | 28:10.49 | 1:21.20 | 126799 | 132893
9 | 29:31.69 | 4:40.35 | 132894 | 153928
10 | 34:12.29 | 3:59.65 | 153929 | 171918
11 | 38:12.19 | 5:32.16 | 171919 | 196834
12 | 43:44.35 | 4:14.72 | 196835 | 215956
13 | 47:59.32 | 5:03.28 | 215957 | 238709
14 | 53:02.60 | 3:27.71 | 238710 | 254305
15 | 56:30.56 | 5:07.26 | 254306 | 277356
16 | 61:38.07 | 4:23.49 | 277357 | 297130
17 | 66:01.56 | 4:45.51 | 297131 | 318556
18 | 70:47.32 | 0:26.14 | 318557 | 320520
19 | 71:13.46 | 1:49.71 | 320521 | 328766
20 | 73:03.42 | 3:24.03 | 328767 | 344069


Range status and errors

Selected range

Filename C:\mm\Electric Light Orchestra\1977(2007) - Out Of The Blue [ZGK 35530]\Electric Light Orchestra - Out of the Blue.wav

Peak level 100.0 %
Extraction speed 10.3 X
Range quality 99.9 %
Test CRC 2B68D7B1
Copy CRC 2B68D7B1
Copy OK

No errors occurred


AccurateRip summary

Track 1 accurately ripped (confidence 84) [54C844E8] (AR v2)
Track 2 accurately ripped (confidence 85) [8AAFE7B6] (AR v2)
Track 3 accurately ripped (confidence 85) [AC81E4C1] (AR v2)
Track 4 accurately ripped (confidence 84) [4432DCD2] (AR v2)
Track 5 accurately ripped (confidence 84) [F973F6A1] (AR v2)
Track 6 accurately ripped (confidence 84) [7C9562B6] (AR v2)
Track 7 accurately ripped (confidence 84) [F4EDCD74] (AR v2)
Track 8 accurately ripped (confidence 84) [E0694A20] (AR v2)
Track 9 accurately ripped (confidence 83) [B55D5386] (AR v2)
Track 10 accurately ripped (confidence 83) [5B9FA593] (AR v2)
Track 11 accurately ripped (confidence 84) [66D8C9C6] (AR v2)
Track 12 accurately ripped (confidence 85) [8A77CB92] (AR v2)
Track 13 accurately ripped (confidence 85) [0810DC06] (AR v2)
Track 14 accurately ripped (confidence 84) [56CC5C6A] (AR v2)
Track 15 accurately ripped (confidence 83) [8D4BF1F5] (AR v2)
Track 16 accurately ripped (confidence 83) [156491B4] (AR v2)
Track 17 accurately ripped (confidence 81) [4E56927A] (AR v2)
Track 18 accurately ripped (confidence 83) [706BC009] (AR v2)
Track 19 accurately ripped (confidence 84) [9B653624] (AR v2)
Track 20 accurately ripped (confidence 80) [2197E360] (AR v2)

All tracks accurately ripped

End of status report
[свернуть]

Файл CUE

REM GENRE Rock
REM DATE 1977
REM DISCID 3D11EB14
REM COMMENT "ExactAudioCopy v1.1"
PERFORMER "Electric Light Orchestra"
TITLE "Out of the Blue"
FILE "Electric Light Orchestra - Out of the Blue.flac" WAVE
TRACK 01 AUDIO
TITLE "Turn to Stone"
PERFORMER "Electric Light Orchestra"
INDEX 01 00:00:00
TRACK 02 AUDIO
TITLE "It's Over"
PERFORMER "Electric Light Orchestra"
INDEX 01 03:49:07
TRACK 03 AUDIO
TITLE "Sweet Talkin' Woman"
PERFORMER "Electric Light Orchestra"
INDEX 01 07:57:72
TRACK 04 AUDIO
TITLE "Across the Border"
PERFORMER "Electric Light Orchestra"
INDEX 01 11:47:62
TRACK 05 AUDIO
TITLE "Night in the City"
PERFORMER "Electric Light Orchestra"
INDEX 01 15:41:47
TRACK 06 AUDIO
TITLE "Starlight"
PERFORMER "Electric Light Orchestra"
INDEX 01 19:45:42
TRACK 07 AUDIO
TITLE "Jungle"
PERFORMER "Electric Light Orchestra"
INDEX 01 24:17:27
TRACK 08 AUDIO
TITLE "Believe Me Now"
PERFORMER "Electric Light Orchestra"
INDEX 01 28:10:49
TRACK 09 AUDIO
TITLE "Steppin' Out"
PERFORMER "Electric Light Orchestra"
INDEX 01 29:31:69
TRACK 10 AUDIO
TITLE "Standin' in the Rain"
PERFORMER "Electric Light Orchestra"
INDEX 01 34:12:29
TRACK 11 AUDIO
TITLE "Big Wheels"
PERFORMER "Electric Light Orchestra"
INDEX 01 38:12:19
TRACK 12 AUDIO
TITLE "Summer and Lightning"
PERFORMER "Electric Light Orchestra"
INDEX 01 43:44:35
TRACK 13 AUDIO
TITLE "Mr. Blue Sky"
PERFORMER "Electric Light Orchestra"
INDEX 01 47:59:32
TRACK 14 AUDIO
TITLE "Sweet Is the Night"
PERFORMER "Electric Light Orchestra"
INDEX 01 53:02:60
TRACK 15 AUDIO
TITLE "The Whale"
PERFORMER "Electric Light Orchestra"
INDEX 01 56:30:56
TRACK 16 AUDIO
TITLE "Birmingham Blues"
PERFORMER "Electric Light Orchestra"
INDEX 01 61:38:07
TRACK 17 AUDIO
TITLE "Wild West Hero"
PERFORMER "Electric Light Orchestra"
INDEX 01 66:01:56
TRACK 18 AUDIO
TITLE "Wild West Hero (Alternate Bridge, Home Demo)"
PERFORMER "Electric Light Orchestra"
INDEX 00 70:42:37
INDEX 01 70:47:32
TRACK 19 AUDIO
TITLE "The Quick and the Daft"
PERFORMER "Electric Light Orchestra"
INDEX 00 71:11:51
INDEX 01 71:13:46
TRACK 20 AUDIO
TITLE "Latitude 88 North"
PERFORMER "Electric Light Orchestra"
INDEX 00 73:02:31
INDEX 01 73:03:42
[свернуть]

Лог проверки качества

AUDIOCHECKER v2.0 beta (build 457) - by Dester - [Ссылки могут видеть только зарегистрированные и активированные пользователи.]
[Only registered and activated users can see links.]
~~~~~~~~~~~~~~~~~~~~~~~~~~~~~~~~~~
-=== НЕ РЕДАКТИРУЙТЕ ЭТОТ ФАЙЛ! ===-

Путь: ...\1977(2007) - Out Of The Blue [ZGK 35530]

1 -=- Electric Light Orchestra - Out of the Blue.flac -=- CDDA (100%)

55789908
[свернуть]

Спектр частот

[свернуть]

Скачать Electric Light Orchestra - Out Of The Blue

[Ссылки могут видеть только зарегистрированные и активированные пользователи.]
[Only registered and activated users can see links.]

password: sergych
[свернуть]
My opinion of release: 10/10
__________________
TAIFUN.Wings of Soul

Вверх
3 пользователя(ей) сказали cпасибо:
swint68 (09.04.2016), TAIFUN (29.06.2022), VladislavUdalov (26.09.2017)
  #3
Старый 09.04.2016, 19:02
swint68
Релизёр
Досье
 
Аватар для swint68
По умолчанию Re: Electric Light Orchestra - Out Of The Blue

Вроде всё слушано и переслушано, но есть группы, которых много не бывает.
Спасибо!
Мне только с изданием не всё понятно.
ZGK 35530 идёт на 17 треков

А номер. который идёт на CD - 82796 94272 2 - тот на 20 треков.
Тогда получается, что тут задник от другого издания?
Одним слово я запутался.


Последний раз редактировалось swint68, 09.04.2016 в 19:39.
Вверх
2 пользователя(ей) сказали cпасибо:
sergych (09.04.2016), TAIFUN (29.06.2022)
  #4
Старый 09.04.2016, 22:27
sergych
Координатор
Досье
 
Аватар для sergych
По умолчанию Re: Electric Light Orchestra - Out Of The Blue

swint68, Эту ситуация я, к сожалению, разъяснить не смогу. Могу сказать лишь, что коробку вскрывал лично, так что "шалости" со стороны продавца можно исключить.
Тоже при получении был удивлён задником с 17-ю треками, т.к. приобретал именно 20-ти трековое издание. Тем не менее, в буклете информация о бонус-треках присутствует, как и сами бонус-треки на диске
Кстати, штрихкод на заднике соответствует штрихкоду на наклейке, защищающей коробку от вскрытия


З.Ы. Не один я такой - [Ссылки могут видеть только зарегистрированные и активированные пользователи.]
[Only registered and activated users can see links.]
по ссылке - первые три скана издания залиты 6 лет назад, остальные добавил я сейчас
__________________
TAIFUN.Wings of Soul

Вверх
Пользователь сказал cпасибо:
TAIFUN (29.06.2022)
  #5
Старый 10.04.2016, 07:31
swint68
Релизёр
Досье
 
Аватар для swint68
По умолчанию Re: Electric Light Orchestra - Out Of The Blue

sergych,

В общем без пузыря не разобраться....

Вот тут тоже есть ссылка на Ваше издание и тоже задник на 17 треков
Catalogue: 82796 94272 2 / ZGK 35530

[Ссылки могут видеть только зарегистрированные и активированные пользователи.]
[Only registered and activated users can see links.]

Вверх
2 пользователя(ей) сказали cпасибо:
sergych (10.04.2016), TAIFUN (29.06.2022)
  #6
Старый 10.04.2016, 12:24
sergych
Координатор
Досье
 
Аватар для sergych
По умолчанию Re: Electric Light Orchestra - Out Of The Blue

Цитата: Сообщение от swint68 Посмотреть сообщение
В общем без пузыря не разобраться....

Возможно, что "тётя Sony" начудила
__________________
TAIFUN.Wings of Soul

Вверх
Пользователь сказал cпасибо:
TAIFUN (29.06.2022)
  #7
Старый 10.04.2016, 15:44
swint68
Релизёр
Досье
 
Аватар для swint68
По умолчанию Re: Electric Light Orchestra - Out Of The Blue

sergych,

Хотя что огород городить?
Обложки конечно дело нужное, но в конечно итоге главное как звучит.
А звучит хорошо, что несомненно важнее.

Вверх
Пользователь сказал cпасибо:
TAIFUN (29.06.2022)
  #8
Старый 28.06.2022, 12:17
vvxer
Пользователь
Досье
 
Аватар для vvxer
По умолчанию Re: Electric Light Orchestra - Out Of The Blue

Спасибо! Пластинка из детства :-)

Вверх
Пользователь сказал cпасибо:
TAIFUN (29.06.2022)
Похожие темы
Тема Автор Раздел Ответов Последнее сообщение
Альбом Electric Light Orchestra - On the Third Day sergych Progressive Rock 1 12.07.2015 15:05
Сборник Electric Light Orchestra - Ole' ELO sergych Progressive Rock 0 20.10.2013 08:22
Альбом Electric Light Orchestra - ELO 2 sergych Progressive Rock 0 19.10.2013 21:57
Альбом Electric Light Orchestra - Zoom Afula Progressive Rock 0 08.05.2011 21:03


Метки
1977 , art rock , electric light orchestra , elo , out of the blue , progressive rock , symphonic rock

Опции темы

Ваши права в разделе
Вы не можете создавать новые темы
Вы не можете отвечать в темах
Вы не можете прикреплять вложения
Вы не можете редактировать свои сообщения

Быстрый переход


Текущее время: 01:29. Часовой пояс GMT +3.

© 2008 - 2022 Taifun With Song
Powered by vBulletin® Version 3.8.10
Copyright ©2000 - 2022, vBulletin Solutions, Inc. Перевод: zCarot
При поддержке NIC.UA
0.39988 сек. | MySQL: 17