TAIFUN With Song - качественная и редкая музыка
Навигация
Punk Rock Для композиций панк-рока в целом свойственны быстрый темп, иногда — небольшая продолжительность по времени, простой аккомпанемент, развязная и зачастую агрессивная манера пения. Тексты панк-рок-групп как правило нигилистичны, иногда в них делается упор на социальные проблемы. Нередко панк-рок-группы имеют эпатажный имидж.

А знаете ли Вы, что...
Почему песня «Nothing Else Matters» начинается перебором на открытых струнах?
«В начале песни «Nothing Else Matters» группы Metallica слышен перебор на открытых первой, второй, третьей и шестой струнах. Такое композиционное решение появилось благодаря тому, что её автор Джеймс Хэтфилд, когда начинал сочинять песню, одной рукой держал телефонную трубку и разговаривал со своей девушкой.»
 
Опции темы

  #1
Старый 30.04.2021, 09:37
swint68
Релизёр
Досье
 
Аватар для swint68
FLAC The Offspring - Let The Bad Times Roll [Japanese Edition]


2021 - The Offspring - Let The Bad Times Roll




Исполнитель/Artist: The Offspring
Альбом/Album: Let The Bad Times Roll [Japanese Edition]
Год/Year: 2021
Жанр/Genre: Alternative Rock, Punk Rock
Страна/Country: Япония
Рекорд-лейбл/Record label: Universal Music Co.; Concord Records
Номер в каталоге/Catalogue #: UICB-10003
Формат/Format: Free Lossless Audio Codec (*.flac)
Качество/Quality: Lossless
Тип рипа/RIP Type: image+.cue
Продолжительность/Length: 00:40:48
Источник/Source: HaRD
Размер/Size: 336 MB

Сканы в комплекте

Треклист

01. This Is Not Utopia
02. Let The Bad Times Roll
03. Behind Your Walls
04. Army Of One
05. Breaking These Bones
06. Coming For You
07. We Never Have Sex Anymore
08. In The Hall Of The Mountain King
09. The Opioid Diaries
10. Hassan Chop
13. Guerre Sous Couvertures (bonus)
14. The Opioid Diaries (bonus' Live)
[свернуть]

Превью на YouTube

[свернуть]

EAC лог

Exact Audio Copy V1.5 from 20. February 2020

EAC extraction logfile from 27. April 2021, 21:26

The Offspring / Let The Bad Times Roll (UICB-10003)

Used drive : TSSTcorpDVDWBD SH-B123L Adapter: 1 ID: 1

Read mode : Secure
Utilize accurate stream : Yes
Defeat audio cache : Yes
Make use of C2 pointers : No

Read offset correction : 6
Overread into Lead-In and Lead-Out : No
Fill up missing offset samples with silence : Yes
Delete leading and trailing silent blocks : No
Null samples used in CRC calculations : Yes
Used interface : Native Win32 interface for Win NT & 2000

Used output format : User Defined Encoder
Selected bitrate : 896 kBit/s
Quality : High
Add ID3 tag : No
Command line compressor : C:\Program Files (x86)\Exact Audio Copy\FLAC\FLAC.EXE
Additional command line options : -6 -V -T "ARTIST=%artist%" -T "TITLE=%title%" -T "ALBUM=%albumtitle%" -T "DATE=%year%" -T "TRACKNUMBER=%tracknr%" -T "GENRE=%genre%" -T "COMMENT=%comment%" -T "BAND=%albuminterpret%" -T "ALBUMARTIST=%albuminterpret%" -T "COMPOSER=%composer%" %haslyrics%--tag-from-file=LYRICS="%lyricsfile%"%haslyrics% -T "DISCNUMBER=%cdnumber%" -T "TOTALDISCS=%totalcds%" -T "TOTALTRACKS=%numtracks%" %hascover%--picture="%coverfile%"%hascover% %source% -o %dest%


TOC of the extracted CD

Track | Start | Length | Start sector | End sector
---------------------------------------------------------
1 | 0:00.00 | 2:38.25 | 0 | 11874
2 | 2:38.25 | 3:18.41 | 11875 | 26765
3 | 5:56.66 | 3:21.20 | 26766 | 41860
4 | 9:18.11 | 3:11.02 | 41861 | 56187
5 | 12:29.13 | 2:46.64 | 56188 | 68701
6 | 15:16.02 | 3:48.44 | 68702 | 85845
7 | 19:04.46 | 3:30.59 | 85846 | 101654
8 | 22:35.30 | 1:00.07 | 101655 | 106161
9 | 23:35.37 | 3:01.68 | 106162 | 119804
10 | 26:37.30 | 2:20.60 | 119805 | 130364
11 | 28:58.15 | 3:16.11 | 130365 | 145075
12 | 32:14.26 | 1:12.71 | 145076 | 150546
13 | 33:27.22 | 3:30.48 | 150547 | 166344
14 | 36:57.70 | 3:50.23 | 166345 | 183617


Range status and errors

Selected range

Filename E:\MUSIC\The Offspring - Let The Bad Times Roll (UICB-10003).wav

Peak level 100.0 %
Extraction speed 7.1 X
Range quality 100.0 %
Test CRC EE82F603
Copy CRC EE82F603
Copy OK

No errors occurred


AccurateRip summary

Track 1 not present in database
Track 2 not present in database
Track 3 not present in database
Track 4 not present in database
Track 5 not present in database
Track 6 not present in database
Track 7 not present in database
Track 8 not present in database
Track 9 not present in database
Track 10 not present in database
Track 11 not present in database
Track 12 not present in database
Track 13 not present in database
Track 14 not present in database

None of the tracks are present in the AccurateRip database

End of status report

---- CUETools DB Plugin V2.1.6

[CTDB TOCID: dfRglEAegPI7hCM4V2R.D6HDMzA-] found
Submit result: dfRglEAegPI7hCM4V2R.D6HDMzA- has been confirmed
Track | CTDB Status
1 | (9/9) Accurately ripped
2 | (9/9) Accurately ripped
3 | (9/9) Accurately ripped
4 | (9/9) Accurately ripped
5 | (9/9) Accurately ripped
6 | (9/9) Accurately ripped
7 | (9/9) Accurately ripped
8 | (9/9) Accurately ripped
9 | (9/9) Accurately ripped
10 | (9/9) Accurately ripped
11 | (9/9) Accurately ripped
12 | (9/9) Accurately ripped
13 | (9/9) Accurately ripped
14 | (6/9) Accurately ripped


==== Log checksum 06AB3B9A7EC12EAF5FE0C7AEB179F68112B2633DE08DE95BA5801A0101766E27 ====
[свернуть]

Файл CUE

REM GENRE Rock
REM DATE 2021
REM DISCID BC09900E
REM COMMENT "ExactAudioCopy v1.5"
PERFORMER "The Offspring"
TITLE "Let The Bad Times Roll (UICB-10003)"
REM COMPOSER ""
FILE "The Offspring - Let The Bad Times Roll (UICB-10003).flac" WAVE
TRACK 01 AUDIO
TITLE "This Is Not Utopia"
PERFORMER "The Offspring"
REM COMPOSER ""
INDEX 01 00:00:00
TRACK 02 AUDIO
TITLE "Let The Bad Times Roll"
PERFORMER "The Offspring"
REM COMPOSER ""
INDEX 01 02:38:25
TRACK 03 AUDIO
TITLE "Behind Your Walls"
PERFORMER "The Offspring"
REM COMPOSER ""
INDEX 01 05:56:66
TRACK 04 AUDIO
TITLE "Army Of One"
PERFORMER "The Offspring"
REM COMPOSER ""
INDEX 01 09:18:11
TRACK 05 AUDIO
TITLE "Breaking These Bones"
PERFORMER "The Offspring"
REM COMPOSER ""
INDEX 01 12:29:13
TRACK 06 AUDIO
TITLE "Coming For You"
PERFORMER "The Offspring"
REM COMPOSER ""
INDEX 01 15:16:02
TRACK 07 AUDIO
TITLE "We Never Have Sex Anymore"
PERFORMER "The Offspring"
REM COMPOSER ""
INDEX 01 19:04:46
TRACK 08 AUDIO
TITLE "In The Hall Of The Mountain King"
PERFORMER "The Offspring"
REM COMPOSER ""
INDEX 01 22:35:30
TRACK 09 AUDIO
TITLE "The Opioid Diaries"
PERFORMER "The Offspring"
REM COMPOSER ""
INDEX 01 23:35:37
TRACK 10 AUDIO
TITLE "Hassan Chop"
PERFORMER "The Offspring"
REM COMPOSER ""
INDEX 01 26:37:30
TRACK 11 AUDIO
TITLE "Gone Away"
PERFORMER "The Offspring"
REM COMPOSER ""
INDEX 01 28:58:15
TRACK 12 AUDIO
TITLE "Lullaby"
PERFORMER "The Offspring"
REM COMPOSER ""
INDEX 01 32:14:26
TRACK 13 AUDIO
TITLE "Guerre Sous Couvertures"
PERFORMER "The Offspring"
REM COMPOSER ""
INDEX 01 33:27:22
TRACK 14 AUDIO
TITLE "The Opioid Diaries (Live)"
PERFORMER "The Offspring"
REM COMPOSER ""
INDEX 01 36:57:70
[свернуть]

Лог проверки качества

-----------------------

DON'T MODIFY THIS FILE

-----------------------

PERFORMER: auCDtect Task Manager, ver. 1.6.0 RC1 build 1.6.0.1
Copyright © 2008-2010 y-soft. All rights reserved
[Ссылки могут видеть только зарегистрированные и активированные пользователи.]
[Only registered and activated users can see links.]

ANALYZER: auCDtect: CD records authenticity detector, version 0.8.2
Copyright © 2004 Oleg Berngardt. All rights reserved.
Copyright © 2004 Alexander Djourik. All rights reserved.


FILE: The Offspring - Let The Bad Times Roll (UICB-10003).flac
Size: 317587458 Hash: 92D772BDEC7DEA888CF59BBA14B5FEC3 Accuracy: -m0
Conclusion: CDDA 100%
Signature: 812B2BBD3BDFF8CA4D102EC02CC527F2E49B8842
[свернуть]

Скачать The Offspring - Let The Bad Times Roll

[Ссылки могут видеть только зарегистрированные и активированные пользователи.]
[Only registered and activated users can see links.]
[свернуть]

Вверх
2 пользователя(ей) сказали cпасибо:
sergych (03.05.2021), TAIFUN (02.05.2021)
 
Похожие темы
Тема Автор Раздел Ответов Последнее сообщение
Релиз The Offspring - Days Go By PUPOKIN Punk Rock 0 20.06.2012 09:50
Релиз Jackson Taylor – Let the Bad Times Roll PUPOKIN Country 0 05.06.2011 09:48
The Offspring - Happy Hour! PUPOKIN Punk Rock 0 21.08.2010 10:36
Offspring Stanislav1989 Rock [FAQ] 0 15.11.2008 09:58
The Offspring - Smash ReAl Punk Rock 0 21.06.2008 19:28


Метки
2021 , alternative rock , japanese edition , punk rock , the offspring

Опции темы

Ваши права в разделе
Вы не можете создавать новые темы
Вы не можете отвечать в темах
Вы не можете прикреплять вложения
Вы не можете редактировать свои сообщения

Быстрый переход


Текущее время: 09:45. Часовой пояс GMT +3.

© 2008 - 2020 Taifun With Song
Powered by vBulletin® Version 3.8.10
Copyright ©2000 - 2021, vBulletin Solutions, Inc. Перевод: zCarot
При поддержке NIC.UA
Яндекс.Метрика
0.86033 сек. | MySQL: 17