TAIFUN With Song - качественная и редкая музыка
Навигация
Hard Rock То, что может восприниматься слушателем как «тяжесть» в хард-роке, достигается, в частности, за счет специфического звучания электрогитары (с такими эффектами, как например, дисторшн и овердрайв) и работы ритм-секции. «Классический» хард-рок обрёл формы в конце 1960-х — начале 1970-х годов в Великобритании. Классический хард-рок отличается от хеви-металла более мелодичным звучанием.

А знаете ли Вы, что...
Каким образом Эдит Пиаф помогала бежать из немецких лагерей французским военнопленным?
«Французская певица Эдит Пиаф в период оккупации выступала в лагерях для военнопленных на территории Германии, после которых фотографировалась на память с ними и немецкими офицерами. Затем в Париже лица военнопленных вырезали и вклеивали в фальшивые документы. Пиаф ехала в лагерь с повторным визитом и тайно провозила эти паспорта, с которыми некоторым пленным удавалось бежать.»
 
Опции темы

  #1
Старый 23.03.2021, 20:49
swint68
Релизёр
Досье
 
Аватар для swint68
FLAC Alice Cooper - Detroit Stories [Japanese Edition]


2021 - Alice Cooper - Detroit Stories




Исполнитель/Artist: Alice Cooper
Альбом/Album: Detroit Stories [Japanese Edition]
Год/Year: 2021
Жанр/Genre: Hard Rock, Glam Rock
Страна/Country: Япония
Рекорд-лейбл/Record label: Ward Records. Inc; Chaos Reigns
Номер в каталоге/Catalogue #: GQCS-91002
Формат/Format: Free Lossless Audio Codec (*.flac)
Качество/Quality: Lossless
Тип рипа/RIP Type: image+.cue
Продолжительность/Length: 00:50:18
Источник/Source: Alder
Размер/Size: 442 MB

Сканы в комплекте

Треклист

01. Rock 'n' Roll
02. Go Man Go (Album vers.)
03. Our Love Will Change The World
04. Social Debris
05. $1000 High Heel Shoes
06. Hail Mary
07. Detroit City 2021 (Album vers.)
08. Drunk and In Love
09. Independence Dave
10. I Hate You
11. Wonderful World
12. Sister Anne (Album vers.)
13. Hanging On By A Thread (Don't Give Up) (Album vers.)
14. Shut Up and Rock
15. East Side Story (Album vers.)
[свернуть]

Превью на YouTube

[свернуть]

EAC лог

Exact Audio Copy V1.5 from 20. February 2020

EAC extraction logfile from 19. March 2021, 16:41

Alice Cooper / Detroit Stories [GQCS-91002]

Used drive : HL-DT-STBD-RE BH10LS38 Adapter: 1 ID: 0

Read mode : Secure
Utilize accurate stream : Yes
Defeat audio cache : Yes
Make use of C2 pointers : No

Read offset correction : 667
Overread into Lead-In and Lead-Out : No
Fill up missing offset samples with silence : Yes
Delete leading and trailing silent blocks : No
Null samples used in CRC calculations : Yes
Used interface : Native Win32 interface for Win NT & 2000

Used output format : User Defined Encoder
Selected bitrate : 128 kBit/s
Quality : High
Add ID3 tag : No
Command line compressor : C:\Program Files (x86)\Exact Audio Copy\Flac\flac.exe
Additional command line options : -V -8 -T "Date=%year%" -T "Genre=%genre%" %source%


TOC of the extracted CD

Track | Start | Length | Start sector | End sector
---------------------------------------------------------
1 | 0:00.00 | 4:43.02 | 0 | 21226
2 | 4:43.02 | 2:40.21 | 21227 | 33247
3 | 7:23.23 | 3:39.07 | 33248 | 49679
4 | 11:02.30 | 3:05.05 | 49680 | 63559
5 | 14:07.35 | 3:29.06 | 63560 | 79240
6 | 17:36.41 | 3:14.45 | 79241 | 93835
7 | 20:51.11 | 3:19.48 | 93836 | 108808
8 | 24:10.59 | 3:52.00 | 108809 | 126208
9 | 28:02.59 | 2:56.44 | 126209 | 139452
10 | 30:59.28 | 2:34.06 | 139453 | 151008
11 | 33:33.34 | 3:20.33 | 151009 | 166041
12 | 36:53.67 | 4:47.10 | 166042 | 187576
13 | 41:41.02 | 3:36.21 | 187577 | 203797
14 | 45:17.23 | 2:09.21 | 203798 | 213493
15 | 47:26.44 | 2:52.23 | 213494 | 226416


Range status and errors

Selected range

Filename D:\Rips by Alder\Alice Cooper - Detroit Stories [GQCS-91002].wav

Peak level 100.0 %
Extraction speed 7.6 X
Range quality 99.9 %
Test CRC 3E71FB32
Copy CRC 3E71FB32
Copy OK

No errors occurred


AccurateRip summary

Track 1 not present in database
Track 2 not present in database
Track 3 not present in database
Track 4 not present in database
Track 5 not present in database
Track 6 not present in database
Track 7 not present in database
Track 8 not present in database
Track 9 not present in database
Track 10 not present in database
Track 11 not present in database
Track 12 not present in database
Track 13 not present in database
Track 14 not present in database
Track 15 not present in database

None of the tracks are present in the AccurateRip database

End of status report

---- CUETools DB Plugin V2.1.6

[CTDB TOCID: dwDNk22EU37wE7SudI6GNtFWGXM-] found
Submit result: already submitted
Track | CTDB Status
1 | (115/115) Accurately ripped
2 | (115/115) Accurately ripped
3 | (115/115) Accurately ripped
4 | (115/115) Accurately ripped
5 | (115/115) Accurately ripped
6 | (114/115) Accurately ripped
7 | (115/115) Accurately ripped
8 | (115/115) Accurately ripped
9 | (115/115) Accurately ripped
10 | (115/115) Accurately ripped
11 | (115/115) Accurately ripped
12 | (115/115) Accurately ripped
13 | (115/115) Accurately ripped
14 | (115/115) Accurately ripped
15 | (114/115) Accurately ripped


==== Log checksum 161942E030D9E65FD0438983C4B96D904757A045BD02999EBF12EFC72823187C ====
[свернуть]

Файл CUE

REM GENRE "Blues Rock"
REM DATE 2021
REM DISCID D00BCA0F
REM COMMENT "ExactAudioCopy v1.5"
PERFORMER "Alice Cooper"
TITLE "Detroit Stories [GQCS-91002]"
REM COMPOSER ""
FILE "Alice Cooper - Detroit Stories [GQCS-91002].flac" WAVE
TRACK 01 AUDIO
TITLE "Rock & Roll"
PERFORMER "Alice Cooper"
REM COMPOSER ""
INDEX 01 00:00:00
TRACK 02 AUDIO
TITLE "Go Man Go"
PERFORMER "Alice Cooper"
REM COMPOSER ""
INDEX 01 04:43:02
TRACK 03 AUDIO
TITLE "Our Love Will Change the World"
PERFORMER "Alice Cooper"
REM COMPOSER ""
INDEX 01 07:23:23
TRACK 04 AUDIO
TITLE "Social Debris"
PERFORMER "Alice Cooper"
REM COMPOSER ""
INDEX 01 11:02:30
TRACK 05 AUDIO
TITLE "$1000 High Heel Shoes"
PERFORMER "Alice Cooper"
REM COMPOSER ""
INDEX 01 14:07:35
TRACK 06 AUDIO
TITLE "Hail Mary"
PERFORMER "Alice Cooper"
REM COMPOSER ""
INDEX 01 17:36:41
TRACK 07 AUDIO
TITLE "Detroit City 2021"
PERFORMER "Alice Cooper"
REM COMPOSER ""
INDEX 01 20:51:11
TRACK 08 AUDIO
TITLE "Drunk and in Love"
PERFORMER "Alice Cooper"
REM COMPOSER ""
INDEX 01 24:10:59
TRACK 09 AUDIO
TITLE "Independence Dave"
PERFORMER "Alice Cooper"
REM COMPOSER ""
INDEX 01 28:02:59
TRACK 10 AUDIO
TITLE "I Hate You"
PERFORMER "Alice Cooper"
REM COMPOSER ""
INDEX 01 30:59:28
TRACK 11 AUDIO
TITLE "Wonderful World"
PERFORMER "Alice Cooper"
REM COMPOSER ""
INDEX 01 33:33:34
TRACK 12 AUDIO
TITLE "Sister Anne"
PERFORMER "Alice Cooper"
REM COMPOSER ""
INDEX 01 36:53:67
TRACK 13 AUDIO
TITLE "Hanging On by a Thread (Don’t Give Up)"
PERFORMER "Alice Cooper"
REM COMPOSER ""
INDEX 01 41:41:02
TRACK 14 AUDIO
TITLE "Shut Up and Rock"
PERFORMER "Alice Cooper"
REM COMPOSER ""
INDEX 01 45:17:23
TRACK 15 AUDIO
TITLE "East Side Story"
PERFORMER "Alice Cooper"
REM COMPOSER ""
INDEX 01 47:26:44
[свернуть]

Лог проверки качества

-----------------------

DON'T MODIFY THIS FILE

-----------------------

PERFORMER: auCDtect Task Manager, ver. 1.6.0 RC1 build 1.6.0.1
Copyright © 2008-2010 y-soft. All rights reserved
[Ссылки могут видеть только зарегистрированные и активированные пользователи.]
[Only registered and activated users can see links.]

ANALYZER: auCDtect: CD records authenticity detector, version 0.8.2
Copyright © 2004 Oleg Berngardt. All rights reserved.
Copyright © 2004 Alexander Djourik. All rights reserved.


FILE: Alice Cooper - Detroit Stories [GQCS-91002].flac
Size: 388169854 Hash: 3E56B3739D991798363CB1678FB72032 Accuracy: -m0
Conclusion: CDDA 100%
Signature: F00C9AE666299BC48AA2C6E6FF6BB9574AF55E35
[свернуть]

Скачать Alice Cooper - Detroit Stories

[Ссылки могут видеть только зарегистрированные и активированные пользователи.]
[Only registered and activated users can see links.]
[свернуть]

Вверх
2 пользователя(ей) сказали cпасибо:
sergych (24.03.2021), TAIFUN (24.03.2021)
 
Похожие темы
Тема Автор Раздел Ответов Последнее сообщение
Элис Купер записал альбом «Detroit Stories» TAIFUN Новости в мире музыки 0 29.05.2020 21:44
Альбом Alice Cooper - Constrictor PUPOKIN Hard Rock 0 23.10.2010 09:48
Alice Cooper - Along Came a Spider PUPOKIN Hard Rock 0 31.10.2008 13:06
Альбом Alice Cooper - Humanary Stew - A Tribute To Alice Cooper Alex1990 Hard Rock 0 08.05.2008 21:27


Метки
2021 , alice cooper , glam rock , hard rock , japanese edition

Опции темы

Ваши права в разделе
Вы не можете создавать новые темы
Вы не можете отвечать в темах
Вы не можете прикреплять вложения
Вы не можете редактировать свои сообщения

Быстрый переход


Текущее время: 10:47. Часовой пояс GMT +3.

© 2008 - 2020 Taifun With Song
Powered by vBulletin® Version 3.8.10
Copyright ©2000 - 2021, vBulletin Solutions, Inc. Перевод: zCarot
При поддержке NIC.UA
Яндекс.Метрика
0.50873 сек. | MySQL: 17