TAIFUN With Song - качественная и редкая музыка
Навигация
R&B Ссылки на музыку в этом стиле

А знаете ли Вы, что...
В какую группу взяли гитариста главным образом для того, чтобы он мог покупать спиртное остальным музыкантам?
«Когда Декстер Холланд и Грег Крисел, будучи учениками выпускного класса школы, создали группу Offspring, они пригласили в неё гитариста Кевина «Нудлс» Вассермана. Тот был старше на три года, работал школьным уборщиком и уже имел опыт игры в рок-группе. Но главной причиной приглашения стало то, что Вассерман был совершеннолетним и мог покупать спиртное Холланду и Криселу.»
 
Опции темы

  #1
Старый 07.11.2019, 09:25
sergych
Координатор
Досье
 
Аватар для sergych
Релиз Luther Vandross - Give Me The Reason


1986 - Luther Vandross - Give Me The Reason




Исполнитель/Artist: Luther Vandross
Альбом/Album: Give Me The Reason
Год/Year: 1986
Жанр/Genre: R&B, soul, pop
Страна/Country: Япония
Рекорд-лейбл/Record label: Epic / Sony
Номер в каталоге/Catalogue #: 32.8P-170
Формат/Format: Free Lossless Audio Codec (*.flac)
Качество/Quality: Lossless
Тип рипа/RIP Type: image+.cue
Продолжительность/Length: 00:46:30
Источник/Source: Собственный рип
Размер/Size: 284.6 MB

Сканы в комплекте

Треклист

01. Stop To Love [0:05:10.55]
02. See Me [0:05:31.00]
03. I Gave It Up (When I Fell In Love) [0:04:47.20]
04. So Amazing [0:03:43.37]
05. Give Me the Reason [0:04:47.68]
06. There's Nothing Better Than Love [0:04:45.07]
07. I Really Didn't Mean It [0:05:44.13]
08. Because It's Really Love [0:06:14.00]
09. Anyone Who Had A Heart [0:05:46.37]
[свернуть]

Превью на YouTube

[свернуть]

EAC лог

Exact Audio Copy V1.3 from 2. September 2016

EAC extraction logfile from 17. August 2019, 15:28

Luther Vandross / Give Me The Reason

Used drive : PIONEER DVD-RW DVR-220L Adapter: 1 ID: 0

Read mode : Secure
Utilize accurate stream : Yes
Defeat audio cache : Yes
Make use of C2 pointers : No

Read offset correction : 6
Overread into Lead-In and Lead-Out : No
Fill up missing offset samples with silence : Yes
Delete leading and trailing silent blocks : No
Null samples used in CRC calculations : Yes
Used interface : Installed external ASPI interface

Used output format : User Defined Encoder
Selected bitrate : 1024 kBit/s
Quality : High
Add ID3 tag : No
Command line compressor : C:\Program Files (x86)\Exact Audio Copy\Flac\flac.exe
Additional command line options : -6 -V -T "ARTIST=%artist%" -T "TITLE=%title%" -T "ALBUM=%albumtitle%" -T "DATE=%year%" -T "TRACKNUMBER=%tracknr%" -T "GENRE=%genre%" -T "COMMENT=%comment%" -T "BAND=%albuminterpret%" -T "ALBUMARTIST=%albuminterpret%" -T "COMPOSER=%composer%" %haslyrics%--tag-from-file=LYRICS="%lyricsfile%"%haslyrics% -T "DISCNUMBER=%cdnumber%" -T "TOTALDISCS=%totalcds%" -T "TOTALTRACKS=%numtracks%" %hascover%--picture="%coverfile%"%hascover% %source% -o %dest%


TOC of the extracted CD

Track | Start | Length | Start sector | End sector
---------------------------------------------------------
1 | 0:00.00 | 5:10.55 | 0 | 23304
2 | 5:10.55 | 5:31.00 | 23305 | 48129
3 | 10:41.55 | 4:47.20 | 48130 | 69674
4 | 15:29.00 | 3:43.37 | 69675 | 86436
5 | 19:12.37 | 4:47.68 | 86437 | 108029
6 | 24:00.30 | 4:45.07 | 108030 | 129411
7 | 28:45.37 | 5:44.13 | 129412 | 155224
8 | 34:29.50 | 6:14.00 | 155225 | 183274
9 | 40:43.50 | 5:46.37 | 183275 | 209261


Range status and errors

Selected range

Filename C:\mm\Luther Vandross\1986 - Give Me The Reason [32-8P-170]\Luther Vandross - Give Me The Reason.wav

Peak level 100.0 %
Extraction speed 6.9 X
Range quality 100.0 %
Test CRC CE215531
Copy CRC CE215531
Copy OK

No errors occurred


AccurateRip summary

Track 1 accurately ripped (confidence 25) [CB38B502] (AR v2)
Track 2 accurately ripped (confidence 25) [870ED11C] (AR v2)
Track 3 accurately ripped (confidence 25) [5B403484] (AR v2)
Track 4 accurately ripped (confidence 25) [ABFE7E64] (AR v2)
Track 5 accurately ripped (confidence 25) [4096A1CE] (AR v2)
Track 6 accurately ripped (confidence 25) [75001388] (AR v2)
Track 7 accurately ripped (confidence 25) [1B76E5C3] (AR v2)
Track 8 accurately ripped (confidence 25) [38C61506] (AR v2)
Track 9 accurately ripped (confidence 25) [A4934683] (AR v2)

All tracks accurately ripped

End of status report
[свернуть]

Файл CUE

REM GENRE R&B
REM DATE 1986
REM DISCID 620AE609
REM COMMENT "ExactAudioCopy v1.3"
PERFORMER "Luther Vandross"
TITLE "Give Me The Reason"
REM COMPOSER ""
FILE "Luther Vandross - Give Me The Reason.flac" WAVE
TRACK 01 AUDIO
TITLE "Stop To Love"
PERFORMER "Luther Vandross"
REM COMPOSER ""
INDEX 01 00:00:00
TRACK 02 AUDIO
TITLE "See Me"
PERFORMER "Luther Vandross"
REM COMPOSER ""
INDEX 01 05:10:55
TRACK 03 AUDIO
TITLE "I Gave It Up (When I Fell In Love)"
PERFORMER "Luther Vandross"
REM COMPOSER ""
INDEX 00 10:40:55
INDEX 01 10:41:55
TRACK 04 AUDIO
TITLE "So Amazing"
PERFORMER "Luther Vandross"
REM COMPOSER ""
INDEX 00 15:28:25
INDEX 01 15:29:00
TRACK 05 AUDIO
TITLE "Give Me the Reason"
PERFORMER "Luther Vandross"
REM COMPOSER ""
INDEX 00 19:11:62
INDEX 01 19:12:37
TRACK 06 AUDIO
TITLE "There's Nothing Better Than Love"
PERFORMER "Luther Vandross"
REM COMPOSER ""
INDEX 00 23:58:62
INDEX 01 24:00:30
TRACK 07 AUDIO
TITLE "I Really Didn't Mean It"
PERFORMER "Luther Vandross"
REM COMPOSER ""
INDEX 00 28:44:50
INDEX 01 28:45:37
TRACK 08 AUDIO
TITLE "Because It's Really Love"
PERFORMER "Luther Vandross"
REM COMPOSER ""
INDEX 01 34:29:50
TRACK 09 AUDIO
TITLE "Anyone Who Had A Heart"
PERFORMER "Luther Vandross"
REM COMPOSER ""
INDEX 01 40:43:50
[свернуть]

Лог проверки качества

AUDIOCHECKER v2.0 beta (build 457) - by Dester - [Ссылки могут видеть только зарегистрированные и активированные пользователи.]
[Only registered and activated users can see links.]
~~~~~~~~~~~~~~~~~~~~~~~~~~~~~~~~~~
-=== НЕ РЕДАКТИРУЙТЕ ЭТОТ ФАЙЛ! ===-

Путь: ...\1986 - Give Me The Reason [32-8P-170]

1 -=- Luther Vandross - Give Me The Reason.flac -=- CDDA (100%)

123561652
[свернуть]

Спектр частот

[свернуть]

Скачать Luther Vandross - Give Me The Reason

[Ссылки могут видеть только зарегистрированные и активированные пользователи.]
[Only registered and activated users can see links.]

password: sergych
[свернуть]

Контрольная сумма (хеш-сумма) архива

MD5: bcee6965817f1dabf3663bd8e781f08e
[свернуть]
My opinion of release: 9/10
__________________
TAIFUN.Wings of Soul

Вверх
2 пользователя(ей) сказали cпасибо:
johnsilver (09.11.2019), TAIFUN (07.11.2019)
Похожие темы
Тема Автор Раздел Ответов Последнее сообщение
Альбом Luther Vandross - Any Love sergych R&B 0 21.10.2017 00:54
Релиз David Hidalgo, Luther Dickinson, Mato Nanji - 3 Skulls & The Truth PUPOKIN Jazz и Blues 0 04.10.2012 10:05
Альбом Luther Allison - Rich Man PUPOKIN Jazz и Blues 0 22.05.2009 10:43
Релиз Luther Kent - The Bobby Bland Songbook PUPOKIN Jazz и Blues 0 11.05.2009 10:33
Релиз Luther Vandross - Lovesongs PUPOKIN R&B 0 31.01.2009 13:02


Метки
1986 , give me the reason , luther vandross , pop , r&b , soul

Опции темы

Ваши права в разделе
Вы не можете создавать новые темы
Вы не можете отвечать в темах
Вы не можете прикреплять вложения
Вы не можете редактировать свои сообщения

Быстрый переход




Текущее время: 00:02. Часовой пояс GMT +3.
Powered by vBulletin® Version 3.8.10
Copyright ©2000 - 2019, vBulletin Solutions, Inc. Перевод: zCarot
© 2008 - 2019 Taifun With Song
Яндекс.Метрика