TAIFUN With Song - качественная и редкая музыка
Навигация
А знаете ли Вы, что...
Какой музыкант однажды спел о том, что забыл слова этой песни?
«Однажды на концерте во Франции солист исландской группы Sigur Rós Йонси забыл текст песни. Не остановившись, он сымпровизировал под ту же музыку: «Чёрт, я забыл слова. Но это ничего. Потому что я во Франции, где никто не поймёт».»
 
Опции темы

  #1
Старый 27.02.2009, 20:00
sergych
Координатор
Досье
 
Аватар для sergych
APE Matia Bazar - Radiomatia

1995 - Radiomatia




Исполнитель/Artist: Matia Bazar
Альбом/Album: Radiomatia
Год/Year: 1995
Жанр/Genre: Italo Pop
Страна/Country: Germany
Рекорд-лейбл/Record label: Polygram Italia S.r.l. / Universal
Номер в каталоге/Catalogue #: 529 141-2
Формат/Format: Monkey's Audio (*.ape)
Качество/Quality: Lossless
Продолжительность/Length: 01:01:44
Источник/Source: Из интернета
Размер/Size: 407.8 MB

Треклист

01 - La scuola dei serpenti (You're the Voice) – 4:32 (Matia Bazar; Andy Qunta, Keith Reid, Maggie Ryder, Chris Thompson) – Inedito
02 - La prima stella della sera – 3:52 (testo: Aldo Stellita – musica: Sergio Cossu, Carlo Marrale)
03 - Vacanze romane – 5:09 (testo: Giancarlo Golzi – musica: Carlo Marrale)
04 - Stringimi – 4:03 (testo: Aldo Stellita – musica: Sergio Cossu)
05 - Mi manchi ancora – 4:09 (testo: Aldo Stellita – musica: Antonella Ruggiero, Sergio Cossu)
06 - Dedicato a te – 4:22 (testo: Aldo Stellita – musica: Maurizio Bassi, Lavalente, Sergio Cossu)
07 - Stasera... che sera! – 4:45 (testo: Aldo Stellita – musica: Piero Cassano, Carlo Marrale)
08 - Ti sento – 4:24 (testo: Aldo Stellita – musica: Sergio Cossu, Carlo Marrale)
09 - Cavallo bianco – 4:33 (testo: Giovanni Belfiore, Aldo Stellita – musica: Piero Cassano, Carlo Marrale)
10 - Noi – 4:45 (testo: Aldo Stellita – musica: Sergio Cossu)
11 - Aristocratica – 4:22 (testo: Aldo Stellita – musica: Carlo Marrale)
12 - Fantasia – 4:49 (testo: Aldo Stellita, Giancarlo Golzi – musica: Antonella Ruggiero, Carlo Marrale)
13 - Piccoli giganti – 4:05 (testo: Aldo Stellita – musica: Lavalente, Sergio Cossu, Carlo Marrale)
14 - C'è tutto un mondo intorno – 3:52 (testo: Giancarlo Golzi, Aldo Stellita – musica: Antonella Ruggiero, Piero Cassano, Carlo Marrale)
[свернуть]

youtube.com

[свернуть]

Исполнители/Performers

Gruppo
Laura Valente - voce, cori
Sergio Cossu - pianoforte, tastiere, cori
Aldo Stellita - basso
Giancarlo Golzi - batteria, percussioni

[U]Altri musicisti]/U]
Paolo Gianolio - chitarra
Giorgio Ioan - basso in Mi manchi ancora
Stefano Cisotto - programmazione
Coro della Scuola dei Serpenti: Donatella De Gaetano, Silvia Bortolotti, Marcello Sarti, Luca Vittori
[свернуть]

EAC лог

EAC extraction logfile from 28. November 2007, 0:17 for CD
Matia Bazar / Radiomatia

Used drive : TOSHIBA DVD-ROM SD-R2102 Adapter: 1 ID: 0
Read mode : Secure with NO C2, accurate stream, disable cache
Read offset correction : 708
Overread into Lead-In and Lead-Out : No

Used output format : Internal WAV Routines
44.100 Hz; 16 Bit; Stereo

Other options :
Fill up missing offset samples with silence : Yes
Delete leading and trailing silent blocks : No
Installed external ASPI interface


Range status and errors
Selected range
Filename C:\Matia Bazar - 1995 - Radiomatia\CDImage.wav

Peak level 98.8 %
Range quality 100.0 %
CRC 714C632C
Copy OK

No errors occured

End of status report
[свернуть]

Лог проверки качества

AUDIOCHECKER v2.0 beta (build 457) - by Dester - [Ссылки могут видеть только зарегистрированные и активированные пользователи.]
[Only registered and activated users can see links.]
~~~~~~~~~~~~~~~~~~~~~~~~~~~~~~~~~~
-=== DO NOT EDIT THIS FILE! ===-

Путь: ...\1995 - Radiomatia

1 -=- Radiomatia.ape -=- MPEG (95%)

177931444

=================================
-----------------------

DON'T MODIFY THIS FILE

-----------------------

PERFORMER: auCDtect Task Manager, ver. 1.6.0 RC1 build 1.6.0.1
Copyright © 2008-2010 y-soft. All rights reserved
[Ссылки могут видеть только зарегистрированные и активированные пользователи.]
[Only registered and activated users can see links.]

ANALYZER: auCDtect: CD records authenticity detector, version 0.8.2
Copyright © 2004 Oleg Berngardt. All rights reserved.
Copyright © 2004 Alexander Djourik. All rights reserved.


FILE: Radiomatia.ape
Size: 421944276 Hash: 8ABEEAE86D335907B4B4321E848A8EA1 Accuracy: -m8
Conclusion: CDDA 100%
Signature: 9130D583CFBFE1C6F225B34796EF0600DABDB35A
[свернуть]

Отчёт Dynamic Range Meter

Код:
foobar2000 2.0 / Замер динамического диапазона (DR) 1.1.1
Дата отчёта:		2024-06-04 11:36:54

--------------------------------------------------------------------------------
Анализ:   Matia Bazar / Radiomatia
--------------------------------------------------------------------------------

DR         Пики         RMS           Продолжительность трека
--------------------------------------------------------------------------------
DR7       -0.64 дБ    -9.69 дБ      4:34 01-La scuola dei Serpenti
DR7       -0.10 дБ    -9.41 дБ      3:52 02-La Prima Stella della Sera
DR9       -0.10 дБ   -10.52 дБ      5:10 03-Vacanze Romane
DR9       -0.10 дБ   -10.30 дБ      4:03 04-Stringimi
DR10      -0.10 дБ   -12.20 дБ      4:09 05-Mi Manchi Ancora
DR8       -0.10 дБ   -10.22 дБ      4:21 06-Dedicato A Te
DR11      -0.10 дБ   -13.01 дБ      4:46 07-Stasera... che Sera
DR9       -0.10 дБ   -10.97 дБ      4:24 08-Ti Sento
DR7       -0.10 дБ    -9.96 дБ      4:32 09-Cavallo Bianco
DR7       -0.10 дБ    -9.06 дБ      4:46 10-Noi
DR8       -0.10 дБ   -11.01 дБ      4:22 11-Aristocratica
DR8       -0.10 дБ    -9.94 дБ      4:50 12-Fantasia
DR8       -0.10 дБ   -10.20 дБ      4:03 13-Piccoli Giganti
DR6       -0.10 дБ    -9.64 дБ      3:53 14-C'и Tutto Un Mondo Intorno
--------------------------------------------------------------------------------

Количество треков:	14
Реальные значения DR:	DR8

Частота:			44100 Гц
Каналов:			2
Разрядность: 		16
Битрейт:			911 кбит/с
Кодек:			Monkey's Audio
================================================================================
[свернуть]

Скачать Matia Bazar - Radiomatia

[Ссылки могут видеть только зарегистрированные и активированные пользователи.]
[Only registered and activated users can see links.]

password: sergych
[свернуть]
My rating to this release: 8/10

Release info RInfo

14-й студийник группы. После двухлетнего перерыва, связанного с материнством солистки Лауры Валенте , а также женитьбой и отцовством Альдо Стеллиты, квартет Matia Bazar ( Маррале покинул группу в конце 1993 года после выхода в свет « Там, где песни сбываются ») празднует двадцать лет музыкальной деятельности, издав своего рода « сборник », в котором в полностью переработанной версии представлены некоторые успехи и другие менее известные песни из предыдущего репертуара.
Первый альбом со всеми песнями в исполнении Валенте


Последний раз редактировалось sergych, 14.06.2024 в 06:32. Причина: переоформление темы с заменой лосслесс рипом
sergych вне форума  
Вверх
2 пользователя(ей) сказали cпасибо:
TAIFUN (19.06.2024), ZTEBAN (09.04.2024)
 
  #2
Старый 14.06.2024, 06:39
sergych
Координатор
Досье
 
Аватар для sergych
По умолчанию Re: Matia Bazar - Radiomatia

переоформление темы с заменой на лосслесс (спасибо music love за рип).
__________________
TAIFUN.Wings of Soul

sergych вне форума  
Вверх
Пользователь сказал cпасибо:
TAIFUN (19.06.2024)
Похожие темы
Тема Автор Раздел Ответов Последнее сообщение
Альбом Matia Bazar - Red Corner sergych Зарубежная Поп-Музыка 0 28.03.2009 18:56
Сборник Matia Bazar - Gold sergych Зарубежная Поп-Музыка 0 25.02.2009 20:54


Метки
italo pop , laura valente , matia bazar , pop

Опции темы

Ваши права в разделе
Вы не можете создавать новые темы
Вы не можете отвечать в темах
Вы не можете прикреплять вложения
Вы не можете редактировать свои сообщения

Быстрый переход


Текущее время: 16:56. Часовой пояс GMT +3.

©2008 - 2024 Taifun With Song
Powered by vBulletin® Version 3.8.10
Copyright ©2000 - 2024, vBulletin Solutions, Inc. Перевод: zCarot
При поддержке NIC.UA
0.22384 сек. | MySQL: 17