TAIFUN With Song - качественная и редкая музыка
Навигация
Pop Rock Поп-рок — жанр музыки, объединяющий элементы поп-музыки и рок-музыки. Песни характеризуются простой структурой, запоминающимися мелодиями, повторением музыкальных фраз (от попа), использованием в качестве основных инструментов электрогитар и ударных и агрессивным настроением (от рока).

А знаете ли Вы, что...
Сколько музыкантов и композиторов произошло из семьи Бахов?
«Иоганн Себастьян Бах был не единственным талантом в своей семье. Бахи дали миру более 50 известных музыкантов и несколько замечательных композиторов. Сам Иоганн Себастьян был признан наиболее выдающимся из них намного позже своей смерти. В последние же годы жизни Иоганна Себастьяна его больше почитали за воспитание Бахов-младших, в первую очередь Карла Филиппа Эммануила, музыка которого была известнее.»
 
Опции темы

  #1
Старый 30.09.2014, 20:36
sergych
Координатор
Досье
 
Аватар для sergych
FLAC Океан Ельзи - Модель


2001(2014) - Океан Ельзи - Модель




Исполнитель/Artist: Океан Ельзи
Альбом/Album: Модель
Год/Year: 2001
Ремастеринг/Remaster: 2014
Жанр/Genre: Pop Rock, Rock
Страна/Country: Россия
Рекорд-лейбл/Record label: Никитин ЭмДиСи
Номер в каталоге/Catalogue #: UMGCD14-536
Формат/Format: Free Lossless Audio Codec (*.flac)
Качество/Quality: Lossless
Тип рипа/RIP Type: image+.cue
Продолжительность/Length: 00:41:25
Источник/Source: Собственный рип
Размер/Size: 292.5 MB

Сканы в комплекте

Треклист

01. 911 [0:03:29.06]
02. Я до тебе [0:04:49.45]
03. Друг ч.1 [0:01:22.73]
04. Друг ч.2 [0:04:06.09]
05. Ти собi сама [0:03:49.26]
06. Квiтка [0:04:17.00]
07. Вставай [0:02:56.48]
08. Isn't it сон [0:03:42.00]
09. Коко Шанель [0:03:57.57]
10. Сьогоднi [0:03:28.21]
11. Вулиця (Може все не так) [0:05:26.49]
[свернуть]

youtube.com

[свернуть]

Исполнители/Performers

Святослав Вакарчук — вокал, Fender Rhodes
Павел Гудимов — акустическая гитара, электрическая гитара
Юрий Хусточка — бас
Денис Глинин — барабаны, перкуссия
Дмитрий Шуров — синтезаторы, Fender Rhodes
[свернуть]

EAC лог

Exact Audio Copy V1.0 beta 3 from 29. August 2011

EAC extraction logfile from 30. September 2014, 21:08

Океан Ельзи / Модель

Used drive : ATAPI iHAS124 D Adapter: 0 ID: 2

Read mode : Secure
Utilize accurate stream : Yes
Defeat audio cache : Yes
Make use of C2 pointers : No

Read offset correction : 6
Overread into Lead-In and Lead-Out : No
Fill up missing offset samples with silence : Yes
Delete leading and trailing silent blocks : No
Null samples used in CRC calculations : Yes
Used interface : Installed external ASPI interface

Used output format : User Defined Encoder
Selected bitrate : 1024 kBit/s
Quality : High
Add ID3 tag : No
Command line compressor : C:\Program Files (x86)\Exact Audio Copy\Flac\flac.exe
Additional command line options : -6 -V -T "ARTIST=%artist%" -T "TITLE=%title%" -T "ALBUM=%albumtitle%" -T "DATE=%year%" -T "TRACKNUMBER=%tracknr%" -T "GENRE=%genre%" -T "COMMENT=%comment%" -T "BAND=%albuminterpret%" -T "COMPOSER=%composer%" %haslyrics%--tag-from-file=LYRICS="%lyricsfile%"%haslyrics% -T "DISCNUMBER=%cdnumber%" -T "TOTALDISCS=%totalcds%" -T "TOTALTRACKS=%numtracks%" %hascover%--picture="%coverfile%"%hascover% %source% -o %dest%


TOC of the extracted CD

Track | Start | Length | Start sector | End sector
---------------------------------------------------------
1 | 0:00.00 | 3:29.06 | 0 | 15680
2 | 3:29.06 | 4:49.45 | 15681 | 37400
3 | 8:18.51 | 1:22.73 | 37401 | 43623
4 | 9:41.49 | 4:06.09 | 43624 | 62082
5 | 13:47.58 | 3:49.26 | 62083 | 79283
6 | 17:37.09 | 4:17.00 | 79284 | 98558
7 | 21:54.09 | 2:56.48 | 98559 | 111806
8 | 24:50.57 | 3:42.00 | 111807 | 128456
9 | 28:32.57 | 3:57.57 | 128457 | 146288
10 | 32:30.39 | 3:28.21 | 146289 | 161909
11 | 35:58.60 | 5:26.49 | 161910 | 186408


Range status and errors

Selected range

Filename C:\mm\Океан Ельзи\2001(2014) - Модель [UMGCD14-536]\Океан Ельзи - Модель.wav

Peak level 96.6 %
Extraction speed 8.9 X
Range quality 100.0 %
Test CRC 641F1259
Copy CRC 641F1259
Copy OK

No errors occurred


AccurateRip summary

Track 1 accurately ripped (confidence 1) [EEBB5ADC] (AR v2)
Track 2 accurately ripped (confidence 1) [5FEAA6E8] (AR v2)
Track 3 accurately ripped (confidence 1) [BA84C9C4] (AR v2)
Track 4 accurately ripped (confidence 1) [C9B0B259] (AR v2)
Track 5 accurately ripped (confidence 1) [21708E36] (AR v2)
Track 6 accurately ripped (confidence 1) [6BDCD9C8] (AR v2)
Track 7 accurately ripped (confidence 1) [58183D70] (AR v2)
Track 8 accurately ripped (confidence 1) [6E5B5660] (AR v2)
Track 9 accurately ripped (confidence 1) [55242942] (AR v2)
Track 10 accurately ripped (confidence 1) [ACE78440] (AR v2)
Track 11 accurately ripped (confidence 1) [EB0B5CAD] (AR v2)

All tracks accurately ripped

End of status report
[свернуть]

Файл CUE

REM GENRE Pop
REM DATE 2001
REM DISCID 7F09B50B
REM COMMENT "ExactAudioCopy v1.0b3"
PERFORMER "Океан Ельзи"
TITLE "Модель"
FILE "Океан Ельзи - Модель.flac" WAVE
TRACK 01 AUDIO
TITLE "911"
PERFORMER "Океан Ельзи"
FLAGS DCP
INDEX 01 00:00:00
TRACK 02 AUDIO
TITLE "Я до тебе"
PERFORMER "Океан Ельзи"
FLAGS DCP
INDEX 01 03:29:06
TRACK 03 AUDIO
TITLE "Друг ч.1"
PERFORMER "Океан Ельзи"
FLAGS DCP
INDEX 00 08:16:51
INDEX 01 08:18:51
TRACK 04 AUDIO
TITLE "Друг ч.2"
PERFORMER "Океан Ельзи"
FLAGS DCP
INDEX 01 09:41:49
TRACK 05 AUDIO
TITLE "Ти собi сама"
PERFORMER "Океан Ельзи"
FLAGS DCP
INDEX 00 13:45:58
INDEX 01 13:47:58
TRACK 06 AUDIO
TITLE "Квiтка"
PERFORMER "Океан Ельзи"
FLAGS DCP
INDEX 01 17:37:09
TRACK 07 AUDIO
TITLE "Вставай"
PERFORMER "Океан Ельзи"
FLAGS DCP
INDEX 00 21:52:09
INDEX 01 21:54:09
TRACK 08 AUDIO
TITLE "Isn't it сон"
PERFORMER "Океан Ельзи"
FLAGS DCP
INDEX 00 24:48:57
INDEX 01 24:50:57
TRACK 09 AUDIO
TITLE "Коко Шанель"
PERFORMER "Океан Ельзи"
FLAGS DCP
INDEX 00 28:30:57
INDEX 01 28:32:57
TRACK 10 AUDIO
TITLE "Сьогоднi"
PERFORMER "Океан Ельзи"
FLAGS DCP
INDEX 00 32:28:39
INDEX 01 32:30:39
TRACK 11 AUDIO
TITLE "Вулиця (Може все не так)"
PERFORMER "Океан Ельзи"
FLAGS DCP
INDEX 01 35:58:60
[свернуть]

Лог проверки качества

AUDIOCHECKER v2.0 beta (build 457) - by Dester - [Ссылки могут видеть только зарегистрированные и активированные пользователи.]
[Only registered and activated users can see links.]
~~~~~~~~~~~~~~~~~~~~~~~~~~~~~~~~~~
-=== НЕ РЕДАКТИРУЙТЕ ЭТОТ ФАЙЛ! ===-

Путь: ...\2001(2014) - Модель [UMGCD14-536]

1 -=- Океан Ельзи - Модель.flac -=- CDDA (100%)

173766660
[свернуть]

Спектр частот

[свернуть]

Скачать Океан Ельзи - Модель

[Ссылки могут видеть только зарегистрированные и активированные пользователи.]
[Only registered and activated users can see links.]

password: sergych
[свернуть]
My rating to this release: 9/10
__________________
TAIFUN.Wings of Soul

sergych вне форума  
Вверх
Пользователь сказал cпасибо:
surpav (04.06.2024)
 
  #2
Старый 19.06.2024, 21:52
surpav
Пользователь
Досье
 
Аватар для surpav
По умолчанию Re: Океан Ельзи - Модель

За якість дякую! Сподобалися побачити якісні скани цього альбому та послухати всі пісні у високій якості

surpav вне форума  
Вверх
2 пользователя(ей) сказали cпасибо:
sergych (22.06.2024), TAIFUN (23.06.2024)
  #3
Старый 22.06.2024, 08:24
sergych
Координатор
Досье
 
Аватар для sergych
По умолчанию Re: Океан Ельзи - Модель

@surpav, приятного прослушивания. У нас есть ещё альбомы этой группы, - можно найти поиском или воспользоваться метками тегов внизу темы
__________________
TAIFUN.Wings of Soul

sergych вне форума  
Вверх
Пользователь сказал cпасибо:
TAIFUN (23.06.2024)
Похожие темы
Тема Автор Раздел Ответов Последнее сообщение
Альбом Океан Ельзи - Без меж sergych Pop Rock 0 19.05.2016 16:45
Альбом Океан Ельзи - Янанебiбув sergych Pop Rock 0 04.06.2011 17:16
Сборник Океан Ельзи - Вибране... sergych Pop Rock 0 01.06.2011 17:59
Сборник Океан Ельзи - 12:21 sergych Pop Rock 0 29.05.2011 18:18


Метки
2001 , pop rock , rock , модель , океан ельзи

Опции темы

Ваши права в разделе
Вы не можете создавать новые темы
Вы не можете отвечать в темах
Вы не можете прикреплять вложения
Вы не можете редактировать свои сообщения

Быстрый переход


Текущее время: 15:37. Часовой пояс GMT +3.

©2008 - 2024 Taifun With Song
Powered by vBulletin® Version 3.8.10
Copyright ©2000 - 2024, vBulletin Solutions, Inc. Перевод: zCarot
При поддержке NIC.UA
0.37709 сек. | MySQL: 17