TAIFUN With Song - качественная и редкая музыка
Навигация
Jazz и Blues Гибкая ритмика, импровизационное начало, гармонии и мелодии - все это Jazz. Blues - жизнеутверждающая музыка, рожденная из душевной боли

А знаете ли Вы, что...
Хобби Альберта Эйнштейна!
«Эйнштейн любил играть на скрипке и однажды принял участие в благотворительном концерте в Германии.»
 
Опции темы

  #1
Старый 05.01.2014, 13:00
sergych
Координатор
Досье
 
Аватар для sergych
APE Bobby McFerrin - The Voice


1984 - Bobby McFerrin - The Voice




Исполнитель/Artist: Bobby McFerrin
Альбом/Album: The Voice
Год/Year: 1984
Жанр/Genre: vocal jazz
Страна/Country: Германия
Рекорд-лейбл/Record label: Electra
Номер в каталоге/Catalogue #: 7559-60366-2
Формат/Format: Monkey's Audio (*.ape)
Качество/Quality: Lossless
Тип рипа/RIP Type: image+.cue
Продолжительность/Length: 00:43:18
Источник/Source: Из интернета
Размер/Size: 169.4 MB

Сканы в комплекте

Треклист

01 - Blackbird(John Lennon, Paul McCartney) [3:07]
02 - The Jump [4:48]
03 - El Brujo [4:11]
04 - I Feel Good(James Brown) [3:19]
05 - I'm My Own Walkman [4:02]
06 - Music Box [3:56]
07 - Medley: Donna Lee | Big Top | We're in the Money (Al Dubin/Bobby McFerrin/Charlie Parker/Harry Warren) [7:22]
08 - I'm Alone [4:41]
09 - T.J. [3:48]
10 - A-Train (Billy Strayhorn) [3:58]
[свернуть]

youtube.com

[свернуть]

Исполнители/Performers

Bobby McFerrin – Percussion, Vocals
[свернуть]

EAC лог

Отчёт EAC об извлечении, выполненном 8. июля 2007, 17:55 для диска:
Bobby McFerrin / The Voice

Дисковод: PIONEER DVD-RW DVR-108 Adapter: 1 ID: 0
Режим чтения: Достоверный (C2: нет, Точный поток: да, Отключение кэша: да)
Коррекция смещения при чтении: 48
Способность читать области Lead-in и Lead-out : Нет

Выходной формат: Внутренние WAV-операции
44.100 Гц; 16 бит; стерео

Другие параметры:
Заполнение пропущенных сэмплов тишиной : Да
Удаление блоков с тишиной в начале и конце : Нет
Установленный внешний ASPI-интерфейс


Характеристики диапазона извлечения и сообщения об ошибках
Выбранный диапазон
Имя файла C:\My EACs\Bobby McFerrin - The Voice\Bobby McFerrin - The Voice.wav

Пиковый уровень 100.0 %
Качество диапазона 100.0 %
CRC FF347F86
Копирование... OK

Ошибок не произошло

Конец отчёта
[свернуть]

Файл CUE

REM GENRE Vocal
REM DATE 1984
REM DISCID 740A260A
REM COMMENT "ExactAudioCopy v0.95b4"
PERFORMER "Bobby McFerrin"
TITLE "The Voice"
FILE "Bobby McFerrin - The Voice.wav" WAVE
TRACK 01 AUDIO
TITLE "Blackbird"
PERFORMER "Bobby McFerrin"
INDEX 01 00:00:00
TRACK 02 AUDIO
TITLE "The Jump"
PERFORMER "Bobby McFerrin"
INDEX 00 03:07:20
INDEX 01 03:08:40
TRACK 03 AUDIO
TITLE "El brujo"
PERFORMER "Bobby McFerrin"
INDEX 00 07:56:40
INDEX 01 07:57:25
TRACK 04 AUDIO
TITLE "I Feel Good"
PERFORMER "Bobby McFerrin"
INDEX 01 12:08:50
TRACK 05 AUDIO
TITLE "I'm My Own Walkman"
PERFORMER "Bobby McFerrin"
INDEX 01 15:28:15
TRACK 06 AUDIO
TITLE "Music Box"
PERFORMER "Bobby McFerrin"
INDEX 00 19:29:38
INDEX 01 19:31:10
TRACK 07 AUDIO
TITLE "Medley"
PERFORMER "Bobby McFerrin"
INDEX 00 23:27:15
INDEX 01 23:27:40
TRACK 08 AUDIO
TITLE "I'm Alone"
PERFORMER "Bobby McFerrin"
INDEX 00 30:48:65
INDEX 01 30:49:50
TRACK 09 AUDIO
TITLE "T.J."
PERFORMER "Bobby McFerrin"
INDEX 00 35:30:53
INDEX 01 35:31:30
TRACK 10 AUDIO
TITLE "A-Train"
PERFORMER "Bobby McFerrin"
INDEX 01 39:19:65
[свернуть]

Лог проверки качества

AUDIOCHECKER v2.0 beta (build 457) - by Dester - [Ссылки могут видеть только зарегистрированные и активированные пользователи.]
[Only registered and activated users can see links.]
~~~~~~~~~~~~~~~~~~~~~~~~~~~~~~~~~~
-=== НЕ РЕДАКТИРУЙТЕ ЭТОТ ФАЙЛ! ===-

Путь: ...\1984 - The Voice

1 -=- Bobby McFerrin - The Voice.ape -=- CDDA (92%)

32089700
[свернуть]

Спектр частот

[свернуть]

Скачать Bobby McFerrin - The Voice

[Ссылки могут видеть только зарегистрированные и активированные пользователи.]
[Only registered and activated users can see links.]

password: sergych
[свернуть]
My rating to this release: 10/10
__________________
TAIFUN.Wings of Soul


Последний раз редактировалось sergych, 22.06.2024 в 08:20. Причина: перезалил убитую ссылку
sergych вне форума  
Вверх
Пользователь сказал cпасибо:
TAIFUN (23.06.2024)
 
  #2
Старый 22.06.2024, 08:21
sergych
Координатор
Досье
 
Аватар для sergych
По умолчанию Re: Bobby McFerrin - The Voice

заменил убитую ссылку
__________________
TAIFUN.Wings of Soul

sergych вне форума  
Вверх
Пользователь сказал cпасибо:
TAIFUN (23.06.2024)
Похожие темы
Тема Автор Раздел Ответов Последнее сообщение
Live Bobby McFerrin - Somewhere Over The Rainbow sergych Jazz и Blues 0 07.01.2014 09:44
Сборник Bobby McFerrin - VOCAbuLarieS sergych Jazz и Blues 0 05.01.2014 19:46
Альбом Bobby McFerrin - CircleSongs sergych Jazz и Blues 0 05.01.2014 18:27
Сборник Bobby McFerrin - The Best of Bobby McFerrin sergych Jazz и Blues 0 05.01.2014 08:17
Альбом Bobby McFerrin - Spirityouall sergych Jazz и Blues 0 02.01.2014 12:47


Метки
1984 , bobby mcferrin , the voice , vocal jazz

Опции темы

Ваши права в разделе
Вы не можете создавать новые темы
Вы не можете отвечать в темах
Вы не можете прикреплять вложения
Вы не можете редактировать свои сообщения

Быстрый переход


Текущее время: 15:34. Часовой пояс GMT +3.

©2008 - 2024 Taifun With Song
Powered by vBulletin® Version 3.8.10
Copyright ©2000 - 2024, vBulletin Solutions, Inc. Перевод: zCarot
При поддержке NIC.UA
0.47487 сек. | MySQL: 17