TAIFUN With Song - качественная и редкая музыка
Навигация
Hard Rock То, что может восприниматься слушателем как «тяжесть» в хард-роке, достигается, в частности, за счет специфического звучания электрогитары (с такими эффектами, как например, дисторшн и овердрайв) и работы ритм-секции. «Классический» хард-рок обрёл формы в конце 1960-х — начале 1970-х годов в Великобритании. Классический хард-рок отличается от хеви-металла более мелодичным звучанием.

А знаете ли Вы, что...
Почему Майкл Джексон получал половину доходов от продаж песен Beatles?
«В 1984 году на аукционе продавались издательские права на песни Beatles. Его выиграл Майкл Джексон, заплатив почти 50 миллионов долларов — больше, чем предлагал сам Пол Маккартни. С этого времени Джексон получал половину доходов от продаж Beatles (другую половину получали авторы песен, главным образом Маккартни). В 1995 году компания Sony выкупила у Джексона половину его прав, так что в последнее время он получал только четверть доходов.»
 
Опции темы

  #1
Старый 20.01.2023, 07:10
swint68
Релизёр
Досье
 
Аватар для swint68
FLAC Voodoo Circle - Locked & Loaded


2021 - Voodoo Circle - Locked & Loaded




Исполнитель/Artist: Alex Beyrodt's Voodoo Circle
Альбом/Album: Locked & Loaded
Год/Year: 2021
Жанр/Genre: Hard Rock, Melodic Metal
Страна/Country: Германия
Рекорд-лейбл/Record label: AFM Records
Номер в каталоге/Catalogue #: AFM 771-9
Формат/Format: Free Lossless Audio Codec (*.flac)
Качество/Quality: Lossless
Тип рипа/RIP Type: image+.cue
Продолжительность/Length: 00:52:20
Источник/Source: Ilijan
Размер/Size: 453 MB

Сканы в комплекте

Треклист

01. Flesh & Bone
02. Wasting Time
03. Magic Woman Chile
04. Locked & Loaded
05. Devil With An Angel Smile
06. Straight For The Heart
07. Eyes Full Of Tears
08. Devil's Cross
09. Trouble In The Moonlight
10. This Song Is For You
11. Children Of The Revolution
[свернуть]

Превью на YouTube

[свернуть]

EAC лог

Exact Audio Copy V1.5 from 20. February 2020

EAC extraction logfile from 7. February 2021, 17:27

Alex Beyrodt's Voodoo Circle / Locked & Loaded

Used drive : ATAPI iHAS124 F Adapter: 1 ID: 1

Read mode : Secure
Utilize accurate stream : Yes
Defeat audio cache : Yes
Make use of C2 pointers : No

Read offset correction : 6
Overread into Lead-In and Lead-Out : No
Fill up missing offset samples with silence : Yes
Delete leading and trailing silent blocks : No
Null samples used in CRC calculations : Yes
Used interface : Native Win32 interface for Win NT & 2000

Used output format : User Defined Encoder
Selected bitrate : 1024 kBit/s
Quality : High
Add ID3 tag : No
Command line compressor : C:\Program Files (x86)\FLAC Frontend\tools\flac.exe
Additional command line options : -V -8 -T "Date=%year%" -T "Genre=%genre%" -T"COMMENT=Ripped by Ilijan [MeTaLMaDNeSS.TeaM]" -8 -V %source%


TOC of the extracted CD

Track | Start | Length | Start sector | End sector
---------------------------------------------------------
1 | 0:00.00 | 4:00.40 | 0 | 18039
2 | 4:00.40 | 5:47.31 | 18040 | 44095
3 | 9:47.71 | 6:17.05 | 44096 | 72375
4 | 16:05.01 | 3:34.63 | 72376 | 88488
5 | 19:39.64 | 3:19.04 | 88489 | 103417
6 | 22:58.68 | 4:39.54 | 103418 | 124396
7 | 27:38.47 | 4:39.09 | 124397 | 145330
8 | 32:17.56 | 6:25.62 | 145331 | 174267
9 | 38:43.43 | 3:24.22 | 174268 | 189589
10 | 42:07.65 | 6:04.22 | 189590 | 216911
11 | 48:12.12 | 4:08.07 | 216912 | 235518


Range status and errors

Selected range

Filename E:\Vknish+g.y.m.+angelito (a.k.a. deminbek)=3.14дарасы (Upload On Rutracker, DIE!!!)\Alex Beyrodt's Voodoo Circle - Locked & Loaded.wav

Peak level 97.1 %
Extraction speed 5.9 X
Range quality 100.0 %
Test CRC 2E772B1F
Copy CRC 2E772B1F
Copy OK

No errors occurred


AccurateRip summary

Track 1 not present in database
Track 2 not present in database
Track 3 not present in database
Track 4 not present in database
Track 5 not present in database
Track 6 not present in database
Track 7 not present in database
Track 8 not present in database
Track 9 not present in database
Track 10 not present in database
Track 11 not present in database

None of the tracks are present in the AccurateRip database

End of status report

---- CUETools DB Plugin V2.1.6

[CTDB TOCID: eXSVoclodJHGCAOKG8eIY84SqFc-] found
Submit result: eXSVoclodJHGCAOKG8eIY84SqFc- has been confirmed
Track | CTDB Status
1 | (7/8) Accurately ripped
2 | (7/8) Accurately ripped
3 | (7/8) Accurately ripped
4 | (7/8) Accurately ripped
5 | (7/8) Accurately ripped
6 | (7/8) Accurately ripped
7 | (7/8) Accurately ripped
8 | (7/8) Accurately ripped
9 | (7/8) Accurately ripped
10 | (7/8) Accurately ripped
11 | (7/8) Accurately ripped


==== Log checksum 9FFDCA50FE6C3B8B8ED55A1A21BA48DA38391C8B78A140EDBCF9408FB039C75E ====
[свернуть]

Файл CUE

REM GENRE "Hard Rock/Heavy Metal"
REM DATE 2021
REM DISCID A50C440B
REM COMMENT "ExactAudioCopy v1.5"
PERFORMER "Alex Beyrodt's Voodoo Circle"
TITLE "Locked & Loaded"
FILE "Alex Beyrodt's Voodoo Circle - Locked & Loaded.flac" WAVE
TRACK 01 AUDIO
TITLE "Flesh & Bone"
PERFORMER "Alex Beyrodt's Voodoo Circle"
INDEX 01 00:00:00
TRACK 02 AUDIO
TITLE "Wasting Time"
PERFORMER "Alex Beyrodt's Voodoo Circle"
INDEX 01 04:00:40
TRACK 03 AUDIO
TITLE "Magic Woman Chile"
PERFORMER "Alex Beyrodt's Voodoo Circle"
INDEX 01 09:47:71
TRACK 04 AUDIO
TITLE "Locked & Loaded"
PERFORMER "Alex Beyrodt's Voodoo Circle"
INDEX 01 16:05:01
TRACK 05 AUDIO
TITLE "Devil With An Angel Smile"
PERFORMER "Alex Beyrodt's Voodoo Circle"
INDEX 01 19:39:64
TRACK 06 AUDIO
TITLE "Straight For The Heart"
PERFORMER "Alex Beyrodt's Voodoo Circle"
INDEX 01 22:58:68
TRACK 07 AUDIO
TITLE "Eyes Full Of Tears"
PERFORMER "Alex Beyrodt's Voodoo Circle"
INDEX 01 27:38:47
TRACK 08 AUDIO
TITLE "Devil's Cross"
PERFORMER "Alex Beyrodt's Voodoo Circle"
INDEX 01 32:17:56
TRACK 09 AUDIO
TITLE "Trouble In The Moonlight"
PERFORMER "Alex Beyrodt's Voodoo Circle"
INDEX 01 38:43:43
TRACK 10 AUDIO
TITLE "This Song Is for You"
PERFORMER "Alex Beyrodt's Voodoo Circle"
INDEX 01 42:07:65
TRACK 11 AUDIO
TITLE "Children Of The Revolution"
PERFORMER "Alex Beyrodt's Voodoo Circle"
INDEX 01 48:12:12
[свернуть]

Лог проверки качества

-----------------------

DON'T MODIFY THIS FILE

-----------------------

PERFORMER: auCDtect Task Manager, ver. 1.6.0 RC1 build 1.6.0.1
Copyright © 2008-2010 y-soft. All rights reserved
[Ссылки могут видеть только зарегистрированные и активированные пользователи.]
[Only registered and activated users can see links.]

ANALYZER: auCDtect: CD records authenticity detector, version 0.8.2
Copyright © 2004 Oleg Berngardt. All rights reserved.
Copyright © 2004 Alexander Djourik. All rights reserved.


FILE: Alex Beyrodt's Voodoo Circle - Locked & Loaded.flac
Size: 395871728 Hash: 06A2933BE1DE53B2121B822015566B9C Accuracy: -m0
Conclusion: CDDA 100%
Signature: 4FF459134AE4EA338FCC983E9EA311274826AAFE
[свернуть]

Скачать Voodoo Circle - Locked & Loaded

[Ссылки могут видеть только зарегистрированные и активированные пользователи.]
[Only registered and activated users can see links.]
[свернуть]

swint68 вне форума  
Вверх
Пользователь сказал cпасибо:
TAIFUN (22.01.2023)
 
Похожие темы
Тема Автор Раздел Ответов Последнее сообщение
Альбом Inner Circle - Sweat (A La La La La Long) - The Best Of Inner Circle TAIFUN Reggae 0 09.04.2015 04:38
Mickey Avalon - Loaded PUPOKIN Зарубежный 0 27.04.2012 10:08
Релиз Circle II Circle - Consequence Of Power PUPOKIN Progressive Metal 0 26.09.2010 10:51
Альбом Voodoo Circle - Voodoo Circle PUPOKIN Heavy Metal 0 30.01.2009 10:42
Под кайфом / Loaded (2008) dmitriy89 Триллеры/Ужасы/Мистика 0 14.10.2008 19:37


Метки
2021 , alex beyrodt's voodoo circle , hard rock , melodic metal , voodoo circle

Опции темы

Ваши права в разделе
Вы не можете создавать новые темы
Вы не можете отвечать в темах
Вы не можете прикреплять вложения
Вы не можете редактировать свои сообщения

Быстрый переход


Текущее время: 09:43. Часовой пояс GMT +3.

©2008 - 2023 Taifun With Song
Powered by vBulletin® Version 3.8.10
Copyright ©2000 - 2023, vBulletin Solutions, Inc. Перевод: zCarot
При поддержке NIC.UA
0.19142 сек. | MySQL: 17