TAIFUN With Song - качественная и редкая музыка
Навигация
Death Metal Дэт-метал обычно характеризуется крайней степенью жёсткости, интенсивности и скорости в музыке. Дэт-метал известен своей неровной сменой музыкального темпа и размера, чрезвычайно быстрой и сложной гитарной игрой и двойными басовыми барабанными партиями. Типично использование бласт-бита для добавления звуку мощи. Большинство групп используют заниженный и искажённый гитарный звук.

А знаете ли Вы, что...
Какое музыкальное произведение планируется закончить исполнять к 2640 году?
«Среди произведений Джона Кейджа есть пьеса «Organ²/ASLSP (As SLow aS Possible)». Её типичное исполнение на фортепиано занимает от 20 до 70 минут, однако пояснение в скобках даёт указание играть пьесу настолько медленно, насколько это возможно. В связи с этим в 2001 году в церкви немецкого города Хальберштадт началось уникальное исполнение этой пьесы на органе, которое планируется завершить в 2640 году (через 639 лет после начала), а смена аккорда проходит примерно раз в год.»
 
Опции темы

  #1
Старый 11.01.2023, 17:14
swint68
Релизёр
Досье
 
Аватар для swint68
FLAC Wirbelwind - Time To Realize [EP] [Japanese Edition]


2021 - Wirbelwind - Time To Realize [EP] [Japanese Edition]




Исполнитель/Artist: Wirbelwind
Альбом/Album: Time To Realize [EP] [Japanese Edition]
Год/Year: 2021
Жанр/Genre: Melodic Death Metal
Страна/Country: Япония
Рекорд-лейбл/Record label: Repentless Records
Номер в каталоге/Catalogue #: RETS-019
Формат/Format: Free Lossless Audio Codec (*.flac)
Качество/Quality: Lossless
Тип рипа/RIP Type: image+.cue
Продолжительность/Length: 00:21:40
Источник/Source: Ilijan
Размер/Size: 211 MB

Сканы в комплекте

Треклист

01. Time To Realize
02. Break The Wall
03. Lament
04. Arctic Tempest
05. One Day Forever
[свернуть]

Превью на YouTube

[свернуть]

EAC лог

Exact Audio Copy V1.5 from 20. February 2020

EAC extraction logfile from 19. April 2021, 21:44

Wirbelwind / Time To Realize (Japan)

Used drive : ATAPI iHAS124 F Adapter: 1 ID: 1

Read mode : Secure
Utilize accurate stream : Yes
Defeat audio cache : Yes
Make use of C2 pointers : No

Read offset correction : 6
Overread into Lead-In and Lead-Out : No
Fill up missing offset samples with silence : Yes
Delete leading and trailing silent blocks : No
Null samples used in CRC calculations : Yes
Used interface : Native Win32 interface for Win NT & 2000

Used output format : User Defined Encoder
Selected bitrate : 1024 kBit/s
Quality : High
Add ID3 tag : No
Command line compressor : C:\Program Files (x86)\FLAC Frontend\tools\flac.exe
Additional command line options : -V -8 -T "Date=%year%" -T "Genre=%genre%" -T"COMMENT=Ripped by Ilijan [MeTaLMaDNeSS.TeaM]" -8 -V %source%


TOC of the extracted CD

Track | Start | Length | Start sector | End sector
---------------------------------------------------------
1 | 0:00.00 | 4:45.03 | 0 | 21377
2 | 4:45.03 | 3:37.04 | 21378 | 37656
3 | 8:22.07 | 4:07.61 | 37657 | 56242
4 | 12:29.68 | 4:34.31 | 56243 | 76823
5 | 17:04.24 | 4:36.28 | 76824 | 97551


Range status and errors

Selected range

Filename E:\Vknish+g.y.m.+angelito (a.k.a. deminbek)=3.14дарасы (Upload On Rutracker, DIE!!!)\Wirbelwind - Time To Realize (Japan).wav

Peak level 95.1 %
Extraction speed 4.8 X
Range quality 100.0 %
Test CRC 83D31E5F
Copy CRC 83D31E5F
Copy OK

No errors occurred


AccurateRip summary

Track 1 not present in database
Track 2 not present in database
Track 3 not present in database
Track 4 not present in database
Track 5 not present in database

None of the tracks are present in the AccurateRip database

End of status report

---- CUETools DB Plugin V2.1.6

[CTDB TOCID: QR5WzXVpODRa12xq7VBwG7ViMR4-] disk not present in database
Submit result: QR5WzXVpODRa12xq7VBwG7ViMR4- has been uploaded


==== Log checksum B8B3CF8FB4FC1A191DF0A24A7DAD7544F6A40DC0B38FE4113BB637B26E2B596A ====
[свернуть]

Файл CUE

REM GENRE "Melodic Death Metal"
REM DATE 2021
REM DISCID 32051405
REM COMMENT "ExactAudioCopy v1.5"
PERFORMER "Wirbelwind"
TITLE "Time To Realize (Japan)"
FILE "Wirbelwind - Time To Realize (Japan).flac" WAVE
TRACK 01 AUDIO
TITLE "Time To Realize"
PERFORMER "Wirbelwind"
INDEX 01 00:00:00
TRACK 02 AUDIO
TITLE "Break The Wall"
PERFORMER "Wirbelwind"
INDEX 01 04:45:03
TRACK 03 AUDIO
TITLE "Lament"
PERFORMER "Wirbelwind"
INDEX 01 08:22:07
TRACK 04 AUDIO
TITLE "Arctic Tempest"
PERFORMER "Wirbelwind"
INDEX 01 12:29:68
TRACK 05 AUDIO
TITLE "One Day Forever"
PERFORMER "Wirbelwind"
INDEX 01 17:04:24
[свернуть]

Лог проверки качества

-----------------------

DON'T MODIFY THIS FILE

-----------------------

PERFORMER: auCDtect Task Manager, ver. 1.6.0 RC1 build 1.6.0.1
Copyright © 2008-2010 y-soft. All rights reserved
[Ссылки могут видеть только зарегистрированные и активированные пользователи.]
[Only registered and activated users can see links.]

ANALYZER: auCDtect: CD records authenticity detector, version 0.8.2
Copyright © 2004 Oleg Berngardt. All rights reserved.
Copyright © 2004 Alexander Djourik. All rights reserved.


FILE: Wirbelwind - Time To Realize (Japan).flac
Size: 170563957 Hash: 6463DD2CDB2158B8AD3FBCD6170C7930 Accuracy: -m0
Conclusion: CDDA 100%
Signature: ACE26755E5378D4F669B9B7A941EB26F4F711407
[свернуть]

Скачать Wirbelwind - Time To Realize [EP] [Japanese Edition]

[Ссылки могут видеть только зарегистрированные и активированные пользователи.]
[Only registered and activated users can see links.]

Password: swint
[свернуть]

swint68 вне форума  
Вверх
Пользователь сказал cпасибо:
TAIFUN (11.01.2023)
 
Похожие темы
Тема Автор Раздел Ответов Последнее сообщение
Альбом Rage - Resurrection Day [Japanese Edition] swint68 Heavy Metal 0 23.09.2021 19:19
Релиз Stryper - No More Hell To Pay [Japanese Edition] PUPOKIN Heavy Metal 0 08.11.2013 10:09
Релиз Sebadoh - Defend Yourself [Japanese Edition] PUPOKIN Indie Rock 0 20.09.2013 10:30
Релиз ReinXeed - A New World [Japanese Edition] PUPOKIN Power Metal 0 07.09.2013 10:37
Альбом Emiliana Torrini - Me And Armini (Japanese Edition) sergych Jazz и Blues 0 21.06.2009 17:02


Метки
2021 , japanese edition , melodic death metal , wirbelwind

Опции темы

Ваши права в разделе
Вы не можете создавать новые темы
Вы не можете отвечать в темах
Вы не можете прикреплять вложения
Вы не можете редактировать свои сообщения

Быстрый переход


Текущее время: 09:11. Часовой пояс GMT +3.

©2008 - 2023 Taifun With Song
Powered by vBulletin® Version 3.8.10
Copyright ©2000 - 2023, vBulletin Solutions, Inc. Перевод: zCarot
При поддержке NIC.UA
0.16170 сек. | MySQL: 17