TAIFUN With Song - качественная и редкая музыка
Навигация
Thrash Metal Быстрый стремительный темп исполнения метала, скоростные низкочастотные гитарные риффы и высокочастотные соло. Гитарные ритм-партии при исполнении трэш-метала характеризуются приглушением вибрации струн ладонью (англ. palm muting) и стаккато при сильно искажённом звуке, вследствие чего приобретается некое «пыхтящее» звучание.

А знаете ли Вы, что...
Кто такой Сироб Вокищнеберг, упомянутый в описании альбома «Яблокитай» группы «Наутилус Помпилиус»?
«В описании альбома «Яблокитай» группы «Наутилус Помпилиус» указан некий профессор Сироб Вокищнеберг, играющий на реверсах. Этот таинственный человек никто иной, как Борис Гребенщиков, записанный наоборот. Таким образом удачно обыграли его работу с реверсами — прокручиванием музыкальных фрагментов в обратном направлении.»
 
Опции темы

  #1
Старый 31.12.2022, 08:44
swint68
Релизёр
Досье
 
Аватар для swint68
FLAC Vulture - Dealin' Death [Limited Edition]


2021 - Vulture - Dealin' Death [Limited Edition]




Исполнитель/Artist: Vulture
Альбом/Album: Dealin' Death
Год/Year: 2021
Жанр/Genre: Speed Metal, Thrash Metal
Страна/Country: Соединённые Штаты
Рекорд-лейбл/Record label: Metal Blade Records
Номер в каталоге/Catalogue #: 3984-15765-0
Формат/Format: Free Lossless Audio Codec (*.flac)
Качество/Quality: Lossless
Тип рипа/RIP Type: image+.cue
Продолжительность/Length: 00:42:26
Источник/Source: Ilijan
Размер/Size: 347 MB

Сканы в комплекте

Треклист

01. Danger Is Imminent
02. Malicious Souls
03. Count Your Blessings
04. Gorgon
05. Star-Crossed City
06. Flee The Phantom
07. Below The Mausoleum
08. Dealin' Death
09. Multitudes Of Terror
10. The Court Of Caligula
[свернуть]

Превью на YouTube

[свернуть]

EAC лог

Exact Audio Copy V1.5 from 20. February 2020

EAC extraction logfile from 9. June 2021, 18:37

Vulture / Dealin' Death

Used drive : ATAPI iHAS124 F Adapter: 1 ID: 1

Read mode : Secure
Utilize accurate stream : Yes
Defeat audio cache : Yes
Make use of C2 pointers : No

Read offset correction : 6
Overread into Lead-In and Lead-Out : No
Fill up missing offset samples with silence : Yes
Delete leading and trailing silent blocks : No
Null samples used in CRC calculations : Yes
Used interface : Native Win32 interface for Win NT & 2000

Used output format : User Defined Encoder
Selected bitrate : 1024 kBit/s
Quality : High
Add ID3 tag : No
Command line compressor : C:\Program Files (x86)\FLAC Frontend\tools\flac.exe
Additional command line options : -V -8 -T "Date=%year%" -T "Genre=%genre%" -T"COMMENT=Ripped by Ilijan [MeTaLMaDNeSS.TeaM]" -8 -V %source%


TOC of the extracted CD

Track | Start | Length | Start sector | End sector
---------------------------------------------------------
1 | 0:00.00 | 0:55.13 | 0 | 4137
2 | 0:55.13 | 3:17.70 | 4138 | 18982
3 | 4:13.08 | 4:04.58 | 18983 | 37340
4 | 8:17.66 | 5:42.48 | 37341 | 63038
5 | 14:00.39 | 5:11.17 | 63039 | 86380
6 | 19:11.56 | 4:55.50 | 86381 | 108555
7 | 24:07.31 | 5:01.41 | 108556 | 131171
8 | 29:08.72 | 3:46.18 | 131172 | 148139
9 | 32:55.15 | 4:06.52 | 148140 | 166641
10 | 37:01.67 | 5:24.08 | 166642 | 190949


Range status and errors

Selected range

Filename E:\Vknish+g.y.m.+angelito (a.k.a. deminbek)=3.14дарасы (Upload On Rutracker, DIE!!!)\Vulture - Dealin' Death.wav

Peak level 97.1 %
Extraction speed 5.5 X
Range quality 100.0 %
Test CRC 09DD9BA8
Copy CRC 09DD9BA8
Copy OK

No errors occurred


AccurateRip summary

Track 1 not present in database
Track 2 not present in database
Track 3 not present in database
Track 4 not present in database
Track 5 not present in database
Track 6 not present in database
Track 7 not present in database
Track 8 not present in database
Track 9 not present in database
Track 10 not present in database

None of the tracks are present in the AccurateRip database

End of status report

---- CUETools DB Plugin V2.1.6

[CTDB TOCID: rJb.W_eSs27ZXd26BedGYe7qRHY-] found
Submit result: rJb.W_eSs27ZXd26BedGYe7qRHY- has been confirmed
Track | CTDB Status
1 | (6/6) Accurately ripped
2 | (6/6) Accurately ripped
3 | (6/6) Accurately ripped
4 | (6/6) Accurately ripped
5 | (6/6) Accurately ripped
6 | (6/6) Accurately ripped
7 | (6/6) Accurately ripped
8 | (6/6) Accurately ripped
9 | (6/6) Accurately ripped
10 | (6/6) Accurately ripped


==== Log checksum 7D40D0EE4ADA4D55E990CF0DC6BC5C1A2C0099410AC217555E6CA6C6395215FC ====
[свернуть]

Файл CUE

REM GENRE "Speed/Thrash Metal"
REM DATE 2021
REM DISCID 8809F20A
REM COMMENT "ExactAudioCopy v1.5"
PERFORMER "Vulture"
TITLE "Dealin' Death"
FILE "Vulture - Dealin' Death.flac" WAVE
TRACK 01 AUDIO
TITLE "Danger Is Imminent"
PERFORMER "Vulture"
INDEX 01 00:00:00
TRACK 02 AUDIO
TITLE "Malicious Souls"
PERFORMER "Vulture"
INDEX 01 00:55:13
TRACK 03 AUDIO
TITLE "Count Your Blessings"
PERFORMER "Vulture"
INDEX 01 04:13:08
TRACK 04 AUDIO
TITLE "Gorgon"
PERFORMER "Vulture"
INDEX 01 08:17:66
TRACK 05 AUDIO
TITLE "Star-Crossed City"
PERFORMER "Vulture"
INDEX 01 14:00:39
TRACK 06 AUDIO
TITLE "Flee The Phantom"
PERFORMER "Vulture"
INDEX 01 19:11:56
TRACK 07 AUDIO
TITLE "Below The Mausoleum"
PERFORMER "Vulture"
INDEX 01 24:07:31
TRACK 08 AUDIO
TITLE "Dealin' Death"
PERFORMER "Vulture"
INDEX 01 29:08:72
TRACK 09 AUDIO
TITLE "Multitudes Of Terror"
PERFORMER "Vulture"
INDEX 01 32:55:15
TRACK 10 AUDIO
TITLE "The Court Of Caligula"
PERFORMER "Vulture"
INDEX 01 37:01:67
[свернуть]

Лог проверки качества

-----------------------

DON'T MODIFY THIS FILE

-----------------------

PERFORMER: auCDtect Task Manager, ver. 1.6.0 RC1 build 1.6.0.1
Copyright © 2008-2010 y-soft. All rights reserved
[Ссылки могут видеть только зарегистрированные и активированные пользователи.]
[Only registered and activated users can see links.]

ANALYZER: auCDtect: CD records authenticity detector, version 0.8.2
Copyright © 2004 Oleg Berngardt. All rights reserved.
Copyright © 2004 Alexander Djourik. All rights reserved.


FILE: Vulture - Dealin' Death.flac
Size: 311181839 Hash: 438BCED2811B2E0E725C55558B1CB3AD Accuracy: -m0
Conclusion: CDDA 100%
Signature: AB0F0EDAD265D71DE9A843C3D53609532C56DA7A
[свернуть]

Скачать Vulture - Dealin' Death [Limited Edition]

[Ссылки могут видеть только зарегистрированные и активированные пользователи.]
[Only registered and activated users can see links.]
[свернуть]

swint68 вне форума  
Вверх
2 пользователя(ей) сказали cпасибо:
sergych (06.01.2023), TAIFUN (01.01.2023)
 
Похожие темы
Тема Автор Раздел Ответов Последнее сообщение
Релиз Naked Brown - Not So Bad (Limited Edition) PUPOKIN Hard Rock 0 28.01.2014 10:07
Релиз Ikon - The Awakening [Limited Edition] PUPOKIN Rock 0 30.12.2011 11:00
Rammstein - Volkerball (Limited Edition 2 CD) fly123 Industrial Metal 0 28.08.2011 14:09
SBB - Iron Curtain (Limited Edition) PUPOKIN Progressive Rock 0 25.03.2010 10:03


Метки
2021 , speed metal , thrash metal , vulture

Опции темы

Ваши права в разделе
Вы не можете создавать новые темы
Вы не можете отвечать в темах
Вы не можете прикреплять вложения
Вы не можете редактировать свои сообщения

Быстрый переход


Текущее время: 09:31. Часовой пояс GMT +3.

©2008 - 2023 Taifun With Song
Powered by vBulletin® Version 3.8.10
Copyright ©2000 - 2023, vBulletin Solutions, Inc. Перевод: zCarot
При поддержке NIC.UA
0.19903 сек. | MySQL: 17