TAIFUN With Song - качественная и редкая музыка
Навигация
Pop Rock Поп-рок — жанр музыки, объединяющий элементы поп-музыки и рок-музыки. Песни характеризуются простой структурой, запоминающимися мелодиями, повторением музыкальных фраз (от попа), использованием в качестве основных инструментов электрогитар и ударных и агрессивным настроением (от рока).

А знаете ли Вы, что...
Какова самая низкая нота, которую может взять человек?
«Американский певец Тим Стормс обладает самым широким в мире вокальным диапазоном. Ещё один зафиксированный рекорд, принадлежащий Стормсу — самая низкая нота, взятая человеком. Эта нота частотой 0,189 Гц — соль на восемь октав ниже, чем самая низкая соль на фортепиано. Данный звук очень далеко отстоит от порога человеческого восприятия (для обычного человека — 16 Гц), а рекорд фиксировался специальными акустическими приборами.»
 
Опции темы

  #1
Старый 10.05.2013, 22:44
aheron
Релизёр
Досье
 
Аватар для aheron
FLAC George Michael - Older


1996 - George Michael - Older






Исполнитель/Artist: George Michael
Альбом/Album: Older
Год/Year: 1996
Жанр/Genre: Pop Rock, Downtempo, Synth-pop, Vocal
Страна/Country: USA
Рекорд-лейбл/Record label: Robobuild Ltd. DreamWorks Records. Made in USA
Каталог/Catalog #: DRMD 50000
Формат/Format: Free Lossless Audio Codec (*.flac)
Качество/Quality: Lossless
Тип рипа/RIP Type: image+.cue


Продолжительность/Length: 00:58:56
Источник/Source: Из интернета
Размер/Size: 491 MB

Сканы в комплекте


Треклист

George Michael - Older (11 / 58:56)
------------------------------------------------------
01. George Michael - Jesus To A Child [06:51]
02. George Michael - Fastlove [05:24]
03. George Michael - Older [05:33]
04. George Michael - Spinning The Wheel [06:21]
05. George Michael - It Doesn't Really Matter [04:50]
06. George Michael - The Strangest Thing [06:01]
07. George Michael - To Be Forgiven [05:21]
08. George Michael - Move On [04:45]
09. George Michael - Star People [05:16]
10. George Michael - You Have Been Loved [05:30]
11. George Michael - Free [03:00]
[свернуть]

EAC лог

Exact Audio Copy V0.99 prebeta 4 from 23. January 2008

Отчёт EAC об извлечении, выполненном 17. декабря 2008, 10:49

George Michael / Older

Дисковод: ASUS DRW-1608P Adapter: 0 ID: 0

Режим чтения : Достоверность
Использование точного потока : Да
Отключение кэша аудио : Да
Использование указателей C2 : Нет

Коррекция смещения при чтении : 48
Способность читать области Lead-in и Lead-out : Нет
Заполнение пропущенных сэмплов тишиной : Да
Удаление блоков с тишиной в начале и конце : Нет
При вычислениях CRC использовались нулевые сэмплы : Да
Интерфейс : Встроенный Win32-интерфейс для Win NT/2000

Выходной формат : Внутренние WAV-операции
Формат сэмплов : 44.100 Гц; 16 бит; стерео


TOC извлечённого CD

Трек | Старт | Длительность | Начальный сектор | Конечный сектор
---------------------------------------------------------------------
1 | 0:00.00 | 6:51.05 | 0 | 30829
2 | 6:51.05 | 5:24.50 | 30830 | 55179
3 | 12:15.55 | 5:33.07 | 55180 | 80161
4 | 17:48.62 | 6:21.48 | 80162 | 108784
5 | 24:10.35 | 4:50.10 | 108785 | 130544
6 | 29:00.45 | 6:01.47 | 130545 | 157666
7 | 35:02.17 | 5:21.30 | 157667 | 181771
8 | 40:23.47 | 4:45.23 | 181772 | 203169
9 | 45:08.70 | 5:16.45 | 203170 | 226914
10 | 50:25.40 | 5:30.60 | 226915 | 251724
11 | 55:56.25 | 3:00.32 | 251725 | 265256


Характеристики диапазона извлечения и сообщения об ошибках

Выбранный диапазон

Имя файла E:\George Michael + Wham!\[1996] Older\George Michael - Older.wav

Пиковый уровень 99.6 %
Качество диапазона 100.0 %
CRC теста B68FC5E6
CRC копии B68FC5E6
Копирование... OK

Ошибок не произошло


AccurateRip: сводка

Трек 1 точное извлечение (доверие 9) [924BA239]
Трек 2 точное извлечение (доверие 9) [10489849]
Трек 3 точное извлечение (доверие 9) [A5A21174]
Трек 4 точное извлечение (доверие 9) [C9805EC8]
Трек 5 точное извлечение (доверие 9) [2AFC07DC]
Трек 6 точное извлечение (доверие 9) [D22C2074]
Трек 7 точное извлечение (доверие 8) [8893A578]
Трек 8 точное извлечение (доверие 9) [463D33C2]
Трек 9 точное извлечение (доверие 9) [4512E54F]
Трек 10 точное извлечение (доверие 9) [C5F680AA]
Трек 11 точное извлечение (доверие 9) [E4A6A004]

Все треки извлечены точно

Конец отчёта
[свернуть]

Лог проверки качества

AUDIOCHECKER v2.0 beta (build 457) - by Dester - [Ссылки могут видеть только зарегистрированные и активированные пользователи.]
[Only registered and activated users can see links.]
~~~~~~~~~~~~~~~~~~~~~~~~~~~~~~~~~~
-=== НЕ РЕДАКТИРУЙТЕ ЭТОТ ФАЙЛ! ===-

Путь: ...\George Michael - Older (1996)

01 -=- George Michael - Older.flac -=- CDDA (99%)

241618004
[свернуть]

Скачать George Michael - Older

Яндекс.Диск
[Ссылки могут видеть только зарегистрированные и активированные пользователи.]
[Only registered and activated users can see links.]
[свернуть]


Последний раз редактировалось aheron, 11.05.2013 в 21:41.
aheron вне форума  
Вверх
3 пользователя(ей) сказали cпасибо:
burnett_s (26.04.2017), JAWS30 (19.04.2020), sergych (11.05.2013)
 
  #2
Старый 24.04.2017, 20:18
sergych
Координатор
Досье
 
Аватар для sergych
FLAC Re: George Michael - Older


1996 - George Michael - Older




Исполнитель/Artist: George Michael
Альбом/Album: Older
Год/Year: 1996
Жанр/Genre: Pop, R&B, soul, jazz,
Страна/Country: Европа
Рекорд-лейбл/Record label: Aegean / Virgin
Номер в каталоге/Catalogue #: 7243 8 41392 2 3 CDV2802
Формат/Format: Free Lossless Audio Codec (*.flac)
Качество/Quality: Lossless
Тип рипа/RIP Type: image+.cue
Продолжительность/Length: 00:58:57
Источник/Source: Собственный рип
Размер/Size: 524.9 MB

Сканы в комплекте

Треклист

01. Jesus to a Child [0:06:51.05]
02. Fastlove [0:05:24.50]
03. Older [0:05:33.07]
04. Spinning the Wheel [0:06:21.48]
05. It Doesn't Really Matter [0:04:50.10]
06. The Strangest Thing [0:06:01.47]
07. To Be Forgiven [0:05:21.30]
08. Move On [0:04:45.23]
09. Star People [0:05:16.45]
10. You Have Been Loved [0:05:30.60]
11. Free [0:03:00.32]
[свернуть]

youtube.com

[свернуть]

Исполнители/Performers

George Michael – lead vocals, bass, keyboards, drums, percussion, programming, arranger, producer
Jo – backing vocals
Alan Ross, Danny Jacob, Hugh Burns, John Themis – guitars
David Austin, David Clews – keyboards
Chris Cameron – keyboards, strings
Nick Murdoch – piano
Jon Douglas – keyboards, producer ("Fastlove", "Spinning the Wheel"), arranger ("Spinning the Wheel")
Stuart Brooks – trumpet, flugelhorn
John Thirkell – trumpet, flugelhorn
Andy Hamilton, Chris Davis, Phillip Smith – saxophone
Fayyaz Virji – trombone
Steve Sidwell – trumpet
[свернуть]

EAC лог

Exact Audio Copy V1.3 from 2. September 2016

EAC extraction logfile from 22. April 2017, 10:09

George Michael / Older

Used drive : PLEXTOR DVDR PX-716A Adapter: 1 ID: 0

Read mode : Secure
Utilize accurate stream : Yes
Defeat audio cache : Yes
Make use of C2 pointers : No

Read offset correction : 30
Overread into Lead-In and Lead-Out : No
Fill up missing offset samples with silence : Yes
Delete leading and trailing silent blocks : No
Null samples used in CRC calculations : Yes
Used interface : Native Win32 interface for Win NT & 2000

Used output format : User Defined Encoder
Selected bitrate : 1024 kBit/s
Quality : High
Add ID3 tag : No
Command line compressor : C:\Program Files (x86)\Exact Audio Copy\FLAC\FLAC.EXE
Additional command line options : -6 -V -T "ARTIST=%artist%" -T "TITLE=%title%" -T "ALBUM=%albumtitle%" -T "DATE=%year%" -T "TRACKNUMBER=%tracknr%" -T "GENRE=%genre%" -T "COMMENT=%comment%" -T "BAND=%albuminterpret%" -T "ALBUMARTIST=%albuminterpret%" -T "COMPOSER=%composer%" %haslyrics%--tag-from-file=LYRICS="%lyricsfile%"%haslyrics% -T "DISCNUMBER=%cdnumber%" -T "TOTALDISCS=%totalcds%" -T "TOTALTRACKS=%numtracks%" %hascover%--picture="%coverfile%"%hascover% %source% -o %dest%


TOC of the extracted CD

Track | Start | Length | Start sector | End sector
---------------------------------------------------------
1 | 0:00.00 | 6:51.05 | 0 | 30829
2 | 6:51.05 | 5:24.50 | 30830 | 55179
3 | 12:15.55 | 5:33.07 | 55180 | 80161
4 | 17:48.62 | 6:21.48 | 80162 | 108784
5 | 24:10.35 | 4:50.10 | 108785 | 130544
6 | 29:00.45 | 6:01.47 | 130545 | 157666
7 | 35:02.17 | 5:21.30 | 157667 | 181771
8 | 40:23.47 | 4:45.23 | 181772 | 203169
9 | 45:08.70 | 5:16.45 | 203170 | 226914
10 | 50:25.40 | 5:30.60 | 226915 | 251724
11 | 55:56.25 | 3:00.32 | 251725 | 265256


Range status and errors

Selected range

Filename C:\mm\George Michael\1996 - Older [7243 8 41392 2 3_CDV2802]\George Michael - Older.wav

Peak level 99.6 %
Extraction speed 13.0 X
Range quality 100.0 %
Test CRC 17189B96
Copy CRC 17189B96
Copy OK

No errors occurred


AccurateRip summary

Track 1 accurately ripped (confidence 117) [60247FE9] (AR v2)
Track 2 accurately ripped (confidence 119) [18A2479F] (AR v2)
Track 3 accurately ripped (confidence 119) [A7DB81F4] (AR v2)
Track 4 accurately ripped (confidence 119) [BAC36D50] (AR v2)
Track 5 accurately ripped (confidence 119) [85034ED4] (AR v2)
Track 6 accurately ripped (confidence 118) [9F8D8D92] (AR v2)
Track 7 accurately ripped (confidence 118) [9A2D18E4] (AR v2)
Track 8 accurately ripped (confidence 119) [A29E496B] (AR v2)
Track 9 accurately ripped (confidence 119) [3CF26484] (AR v2)
Track 10 accurately ripped (confidence 118) [8EBD8BE1] (AR v2)
Track 11 accurately ripped (confidence 117) [9AC5E488] (AR v2)

All tracks accurately ripped

End of status report

---- CUETools DB Plugin V2.1.6

[CTDB TOCID: jDAQ1o2sLeK0jegKB45vfTkrW2Y-] found
Submit result: jDAQ1o2sLeK0jegKB45vfTkrW2Y- has been confirmed
Track | CTDB Status
1 | (1563/1746) Accurately ripped
2 | (1557/1746) Accurately ripped, or (2/1746) differs in 13 samples @03:14:33
3 | (1563/1746) Accurately ripped
4 | (1561/1746) Accurately ripped
5 | (1565/1746) Accurately ripped
6 | (1564/1746) Accurately ripped
7 | (1559/1746) Accurately ripped
8 | (1552/1746) Accurately ripped
9 | (1547/1746) Accurately ripped
10 | (1552/1746) Accurately ripped
11 | (1554/1746) Accurately ripped
[свернуть]

Файл CUE

REM GENRE Pop
REM DATE 1996
REM DISCID 7A0DD00B
REM COMMENT "ExactAudioCopy v1.3"
PERFORMER "George Michael"
TITLE "Older"
REM COMPOSER ""
FILE "George Michael - Older.flac" WAVE
TRACK 01 AUDIO
TITLE "Jesus to a Child"
PERFORMER "George Michael"
REM COMPOSER ""
INDEX 01 00:00:00
TRACK 02 AUDIO
TITLE "Fastlove"
PERFORMER "George Michael"
REM COMPOSER ""
INDEX 00 06:51:02
INDEX 01 06:51:05
TRACK 03 AUDIO
TITLE "Older"
PERFORMER "George Michael"
REM COMPOSER ""
INDEX 00 12:15:30
INDEX 01 12:15:55
TRACK 04 AUDIO
TITLE "Spinning the Wheel"
PERFORMER "George Michael"
REM COMPOSER ""
INDEX 00 17:48:45
INDEX 01 17:48:62
TRACK 05 AUDIO
TITLE "It Doesn't Really Matter"
PERFORMER "George Michael"
REM COMPOSER ""
INDEX 00 24:10:32
INDEX 01 24:10:35
TRACK 06 AUDIO
TITLE "The Strangest Thing"
PERFORMER "George Michael"
REM COMPOSER ""
INDEX 00 29:00:32
INDEX 01 29:00:45
TRACK 07 AUDIO
TITLE "To Be Forgiven"
PERFORMER "George Michael"
REM COMPOSER ""
INDEX 00 35:01:25
INDEX 01 35:02:17
TRACK 08 AUDIO
TITLE "Move On"
PERFORMER "George Michael"
REM COMPOSER ""
INDEX 00 40:23:45
INDEX 01 40:23:47
TRACK 09 AUDIO
TITLE "Star People"
PERFORMER "George Michael"
REM COMPOSER ""
INDEX 00 45:08:67
INDEX 01 45:08:70
TRACK 10 AUDIO
TITLE "You Have Been Loved"
PERFORMER "George Michael"
REM COMPOSER ""
INDEX 00 50:24:45
INDEX 01 50:25:40
TRACK 11 AUDIO
TITLE "Free"
PERFORMER "George Michael"
REM COMPOSER ""
INDEX 00 55:53:47
INDEX 01 55:56:25
[свернуть]

Лог проверки качества

AUDIOCHECKER v2.0 beta (build 457) - by Dester - [Ссылки могут видеть только зарегистрированные и активированные пользователи.]
[Only registered and activated users can see links.]
~~~~~~~~~~~~~~~~~~~~~~~~~~~~~~~~~~
-=== НЕ РЕДАКТИРУЙТЕ ЭТОТ ФАЙЛ! ===-

Путь: ...\1996 - Older [7243 8 41392 2 3_CDV2802]

1 -=- George Michael - Older.flac -=- CDDA (100%)

107691748
[свернуть]

Спектр частот

[свернуть]

Скачать George Michael - Older

[Ссылки могут видеть только зарегистрированные и активированные пользователи.]
[Only registered and activated users can see links.]

password: sergych
[свернуть]

Контрольная сумма (хеш-сумма) архива

MD5: 49c8cf72ba611ca9c80f75072d0bc7d0
[свернуть]
My opinion of release: 10/10

Release info RInfo

Собственно, такой же , как и у предыдущего релизёра, только европеец
__________________
TAIFUN.Wings of Soul

sergych вне форума  
Вверх
2 пользователя(ей) сказали cпасибо:
burnett_s (25.04.2017), swint68 (24.04.2017)
  #3
Старый 16.01.2023, 16:59
McDAC
Пользователь
Досье
 
Аватар для McDAC
По умолчанию Re: George Michael - Older

Ссылка заблокирована.

McDAC вне форума  
Вверх
Похожие темы
Тема Автор Раздел Ответов Последнее сообщение
Альбом George Michael - Faith aheron Pop Rock 1 23.08.2013 22:29
Сингл George Michael - White Light sergych Pop Rock 0 09.08.2013 19:27
Альбом George Michael - Patience aheron Pop Rock 1 19.07.2013 18:00
Сборник George Michael - Ladies & Gentlemen aheron Pop Rock 0 13.05.2013 12:55
Сборник George Michael - Twenty Five aheron Pop Rock 0 12.05.2013 20:42


Метки
1996 , downtempo , george michael , older , pop rock , synth-pop , vocal

Опции темы

Ваши права в разделе
Вы не можете создавать новые темы
Вы не можете отвечать в темах
Вы не можете прикреплять вложения
Вы не можете редактировать свои сообщения

Быстрый переход


Текущее время: 09:18. Часовой пояс GMT +3.

©2008 - 2023 Taifun With Song
Powered by vBulletin® Version 3.8.10
Copyright ©2000 - 2023, vBulletin Solutions, Inc. Перевод: zCarot
При поддержке NIC.UA
0.29212 сек. | MySQL: 17