TAIFUN With Song - качественная и редкая музыка
Навигация
Jazz и Blues Гибкая ритмика, импровизационное начало, гармонии и мелодии - все это Jazz. Blues - жизнеутверждающая музыка, рожденная из душевной боли

А знаете ли Вы, что...
Какое чрезвычайное происшествие дало мощный толчок развитию хип-хопа?
«В ночь с 13 на 14 июля 1977 года в Нью-Йорке вследствие ударов молний произошел блэкаут — массовое отключение электричества. Началось мародёрство и разграбление магазинов. Из салонов электроники было украдено множество дорогих диджейских установок, которые были не по карману негритянскому населению. Благодаря этому появилось большое количество новых диджеев, играющих в недавно зародившемся стиле хип-хоп, что дало мощный толчок в его развитии и популяризации за пределами Бронкса.»
 
Опции темы

  #1
Старый 11.07.2019, 16:41
sergych
Координатор
Досье
 
Аватар для sergych
Релиз J.J. Cale - 5


1979 - J.J. Cale - 5




Исполнитель/Artist: J.J. Cale
Альбом/Album: 5
Год/Year: 1979
Жанр/Genre: Blues, Americana, Tulsa Sound
Страна/Country: Россия
Рекорд-лейбл/Record label: PolyGram / Mercury
Номер в каталоге/Catalogue #: 810 313-2
Формат/Format: Free Lossless Audio Codec (*.flac)
Качество/Quality: Lossless
Тип рипа/RIP Type: image+.cue
Продолжительность/Length: 00:38:00
Источник/Source: Собственный рип
Размер/Size: 214.3 MB

Сканы в комплекте

Треклист

01. Thirteen Days [0:02:50.00]
02. Boilin' Pot [0:02:51.37]
03. I'll Make Love To You Anytime [0:03:13.38]
04. Don't Cry Sister [0:02:14.50]
05. Too Much For Me [0:03:13.25]
06. Sensitive Kind [0:05:10.00]
07. Friday [0:04:13.00]
08. Lou-Easy-Ann [0:02:47.00]
09. Let's Go To Tahiti [0:02:52.00]
10. Katy Kool Lady [0:02:24.00]
11. Fate Of A Fool [0:02:54.00]
12. Mona [0:03:17.00]
[свернуть]

Превью на YouTube

[свернуть]

Исполнители/Performers

J. J. Cale - Guitars, Bass, Piano, Drums, and Vocals
Christine Lakeland - Voices, Organ, Rhythm Guitar, Percussion, and Piano
Billy Cox, Carl Radle, Nick Rather - Bass
Buddy Harman, Kenny Buttrey, Karl Himmel - Drums
Jimmy Karstein - Drums and Congas
David Briggs - Piano
Larry Bell - Electric Piano and Organ
Bill Boatman - Electric Rhythm Guitar and Fiddle
Bill Kenner - Mandolin
Farrell Morris - Vibes
Sherry Porter - Voices
Carl Gorodetzy, Marv Chantry, Roy Christensen, Shelly Kurland - Strings
Cam Mullins - String arrangements
Dennis Goode, Don Sheffield, George Tidwell, Terry Williams - Horns
[свернуть]

EAC лог

Exact Audio Copy V1.3 from 2. September 2016

EAC extraction logfile from 20. May 2019, 19:33

J.J. Cale / 5

Used drive : PIONEER DVD-RW DVR-220L Adapter: 1 ID: 0

Read mode : Secure
Utilize accurate stream : Yes
Defeat audio cache : Yes
Make use of C2 pointers : No

Read offset correction : 6
Overread into Lead-In and Lead-Out : No
Fill up missing offset samples with silence : Yes
Delete leading and trailing silent blocks : No
Null samples used in CRC calculations : Yes
Used interface : Installed external ASPI interface

Used output format : User Defined Encoder
Selected bitrate : 1024 kBit/s
Quality : High
Add ID3 tag : No
Command line compressor : C:\Program Files (x86)\Exact Audio Copy\Flac\flac.exe
Additional command line options : -6 -V -T "ARTIST=%artist%" -T "TITLE=%title%" -T "ALBUM=%albumtitle%" -T "DATE=%year%" -T "TRACKNUMBER=%tracknr%" -T "GENRE=%genre%" -T "COMMENT=%comment%" -T "BAND=%albuminterpret%" -T "ALBUMARTIST=%albuminterpret%" -T "COMPOSER=%composer%" %haslyrics%--tag-from-file=LYRICS="%lyricsfile%"%haslyrics% -T "DISCNUMBER=%cdnumber%" -T "TOTALDISCS=%totalcds%" -T "TOTALTRACKS=%numtracks%" %hascover%--picture="%coverfile%"%hascover% %source% -o %dest%


TOC of the extracted CD

Track | Start | Length | Start sector | End sector
---------------------------------------------------------
1 | 0:00.33 | 2:50.00 | 33 | 12782
2 | 2:50.33 | 2:51.37 | 12783 | 25644
3 | 5:41.70 | 3:13.38 | 25645 | 40157
4 | 8:55.33 | 2:14.50 | 40158 | 50257
5 | 11:10.08 | 3:13.25 | 50258 | 64757
6 | 14:23.33 | 5:10.00 | 64758 | 88007
7 | 19:33.33 | 4:13.00 | 88008 | 106982
8 | 23:46.33 | 2:47.00 | 106983 | 119507
9 | 26:33.33 | 2:52.00 | 119508 | 132407
10 | 29:25.33 | 2:24.00 | 132408 | 143207
11 | 31:49.33 | 2:54.00 | 143208 | 156257
12 | 34:43.33 | 3:17.00 | 156258 | 171032


Range status and errors

Selected range

Filename C:\mm\J.J. Cale\1979 - 5 [810 313-2]\J.J. Cale - 5.wav

Peak level 100.0 %
Extraction speed 4.4 X
Range quality 100.0 %
Test CRC E6CB5A37
Copy CRC E6CB5A37
Copy OK

No errors occurred


AccurateRip summary

Track 1 cannot be verified as accurate (confidence 75) [37CFB101], AccurateRip returned [865BD865] (AR v2)
Track 2 cannot be verified as accurate (confidence 76) [3F985582], AccurateRip returned [6A2FEDCD] (AR v2)
Track 3 cannot be verified as accurate (confidence 76) [239E85EB], AccurateRip returned [F0A47584] (AR v2)
Track 4 cannot be verified as accurate (confidence 76) [18ACA2D2], AccurateRip returned [723A54AD] (AR v2)
Track 5 cannot be verified as accurate (confidence 75) [6EF691D2], AccurateRip returned [BE193776] (AR v2)
Track 6 cannot be verified as accurate (confidence 74) [C3B4ACF3], AccurateRip returned [88DA8E56] (AR v2)
Track 7 cannot be verified as accurate (confidence 77) [CB9ACC06], AccurateRip returned [0087BF66] (AR v2)
Track 8 cannot be verified as accurate (confidence 74) [384CE7FC], AccurateRip returned [783AC132] (AR v2)
Track 9 cannot be verified as accurate (confidence 74) [2D8AAF6B], AccurateRip returned [13ACD1DA] (AR v2)
Track 10 cannot be verified as accurate (confidence 75) [FC2D376F], AccurateRip returned [D295914B] (AR v2)
Track 11 cannot be verified as accurate (confidence 75) [2128B63B], AccurateRip returned [A5174164] (AR v2)
Track 12 cannot be verified as accurate (confidence 75) [5D4EFE6F], AccurateRip returned [248D9583] (AR v2)

No tracks could be verified as accurate
You may have a different pressing from the one(s) in the database

End of status report
[свернуть]

Файл CUE

REM GENRE Rock
REM DATE 1979
REM DISCID A808E80C
REM COMMENT "ExactAudioCopy v1.3"
PERFORMER "J.J. Cale"
TITLE "5"
REM COMPOSER ""
FILE "J.J. Cale - 5.flac" WAVE
TRACK 01 AUDIO
TITLE "Thirteen Days"
PERFORMER "J.J. Cale"
REM COMPOSER ""
INDEX 00 00:00:00
INDEX 01 00:00:33
TRACK 02 AUDIO
TITLE "Boilin' Pot"
PERFORMER "J.J. Cale"
REM COMPOSER ""
INDEX 01 02:50:33
TRACK 03 AUDIO
TITLE "I'll Make Love To You Anytime"
PERFORMER "J.J. Cale"
REM COMPOSER ""
INDEX 01 05:41:70
TRACK 04 AUDIO
TITLE "Don't Cry Sister"
PERFORMER "J.J. Cale"
REM COMPOSER ""
INDEX 01 08:55:33
TRACK 05 AUDIO
TITLE "Too Much For Me"
PERFORMER "J.J. Cale"
REM COMPOSER ""
INDEX 01 11:10:08
TRACK 06 AUDIO
TITLE "Sensitive Kind"
PERFORMER "J.J. Cale"
REM COMPOSER ""
INDEX 01 14:23:33
TRACK 07 AUDIO
TITLE "Friday"
PERFORMER "J.J. Cale"
REM COMPOSER ""
INDEX 01 19:33:33
TRACK 08 AUDIO
TITLE "Lou-Easy-Ann"
PERFORMER "J.J. Cale"
REM COMPOSER ""
INDEX 01 23:46:33
TRACK 09 AUDIO
TITLE "Let's Go To Tahiti"
PERFORMER "J.J. Cale"
REM COMPOSER ""
INDEX 01 26:33:33
TRACK 10 AUDIO
TITLE "Katy Kool Lady"
PERFORMER "J.J. Cale"
REM COMPOSER ""
INDEX 01 29:25:33
TRACK 11 AUDIO
TITLE "Fate Of A Fool"
PERFORMER "J.J. Cale"
REM COMPOSER ""
INDEX 01 31:49:33
TRACK 12 AUDIO
TITLE "Mona"
PERFORMER "J.J. Cale"
REM COMPOSER ""
INDEX 01 34:43:33
[свернуть]

Лог проверки качества

AUDIOCHECKER v2.0 beta (build 457) - by Dester - [Ссылки могут видеть только зарегистрированные и активированные пользователи.]
[Only registered and activated users can see links.]
~~~~~~~~~~~~~~~~~~~~~~~~~~~~~~~~~~
-=== НЕ РЕДАКТИРУЙТЕ ЭТОТ ФАЙЛ! ===-

Путь: ...\1979 - 5 [810 313-2]

1 -=- J.J. Cale - 5.flac -=- CDDA (100%)

152944164
[свернуть]

Спектр частот

[свернуть]

Скачать J.J. Cale - 5

[Ссылки могут видеть только зарегистрированные и активированные пользователи.]
[Only registered and activated users can see links.]

password: sergych
[свернуть]

Контрольная сумма (хеш-сумма) архива

MD5: dbc8faeeee73a5c73819cc310d20a204
[свернуть]
__________________
TAIFUN.Wings of Soul

Вверх
2 пользователя(ей) сказали cпасибо:
swint68 (13.07.2019), TAIFUN (15.07.2019)
Похожие темы
Тема Автор Раздел Ответов Последнее сообщение
Альбом J.J. Cale - Okie sergych Jazz и Blues 0 07.07.2019 08:00
Альбом J.J. Cale - Really sergych Jazz и Blues 0 29.06.2019 17:26
Альбом J.J. Cale & Eric Clapton - The Road To Escondido sergych Blues Rock 0 18.11.2016 20:47
Альбом Eric Clapton & Friends - The Breeze: An Appreciation of JJ Cale sergych Blues Rock 0 13.09.2014 20:00
Релиз J.J. Cale - Roll On PUPOKIN Jazz и Blues 0 26.05.2009 18:12


Метки
1979 , americana , blues , j.j. cale , tulsa sound

Опции темы

Ваши права в разделе
Вы не можете создавать новые темы
Вы не можете отвечать в темах
Вы не можете прикреплять вложения
Вы не можете редактировать свои сообщения

Быстрый переход



Текущее время: 06:13. Часовой пояс GMT +3.
Powered by vBulletin® Version 3.8.10
Copyright ©2000 - 2019, vBulletin Solutions, Inc. Перевод: zCarot
© 2008 - 2019 Taifun With Song
Яндекс.Метрика